<?xml version="1.0" standalone="no"?>
<!DOCTYPE svg PUBLIC "-//W3C//DTD SVG 1.1//EN" "http://www.w3.org/Graphics/SVG/1.1/DTD/svg11.dtd" >
<svg xmlns="http://www.w3.org/2000/svg">
  <metadata>Created by iconfont</metadata>
  <defs>
  <font id="haofont" horiz-adv-x="1024">
    <font-face
      font-family="haofont"
      font-weight="400"
      font-stretch="normal"
      units-per-em="1024"
      ascent="896"
      descent="-128"
    />
      <missing-glyph />
      
      <glyph glyph-name="moon-clear-fill" unicode="&#59425;" d="M419.072 800.512a384 384 0 0 1 509.44-509.44C886.101333 100.096 715.733333-42.666667 512-42.666667 276.352-42.666667 85.333333 148.352 85.333333 384c0 203.733333 142.762667 374.101333 333.738667 416.512z m355.925333-2.261333L810.666667 789.333333v-42.666666l-35.669334-8.917334a85.333333 85.333333 0 0 1-62.08-62.08L704 640h-42.666667l-8.917333 35.669333a85.333333 85.333333 0 0 1-62.08 62.08L554.666667 746.666667v42.666666l35.669333 8.917334A85.333333 85.333333 0 0 1 652.373333 860.330667L661.333333 896h42.666667l8.917333-35.669333a85.333333 85.333333 0 0 1 62.08-62.08z m213.333334-213.333334L1024 576v-42.666667l-35.669333-8.917333a85.333333 85.333333 0 0 1-62.08-62.08L917.333333 426.666667h-42.666666l-8.917334 35.669333a85.333333 85.333333 0 0 1-62.08 62.08L768 533.333333v42.666667l35.669333 8.917333a85.333333 85.333333 0 0 1 62.08 62.08L874.666667 682.666667h42.666666l8.917334-35.669334a85.333333 85.333333 0 0 1 62.08-62.08z"  horiz-adv-x="1024" />
      
      <glyph glyph-name="eicon_train-line" unicode="&#59032;" d="M733.867 42.667l76.8-64v-21.334H213.333v21.334l76.8 64h-76.8A85.333 85.333 0 0 0 128 128V597.333A170.667 170.667 0 0 0 298.667 768h426.666A170.667 170.667 0 0 0 896 597.333V128a85.333 85.333 0 0 0-85.333-85.333h-76.8z m-435.2 640a85.333 85.333 0 0 1-85.334-85.334V128h597.334V597.333a85.333 85.333 0 0 1-85.334 85.334H298.667z m213.333-512a85.333 85.333 0 1 0 0 170.666 85.333 85.333 0 0 0 0-170.666zM256 597.333h512v-170.666H256V597.333z"  horiz-adv-x="1024" />
      
      <glyph glyph-name="disc-fill" unicode="&#59133;" d="M554.666667 504.746667A128 128 0 1 1 640 384V791.125333c173.098667-54.357333 298.666667-216.064 298.666667-407.125333 0-235.648-191.018667-426.666667-426.666667-426.666667S85.333333 148.352 85.333333 384 276.352 810.666667 512 810.666667c14.378667 0 28.629333-0.725333 42.666667-2.133334v-303.786666z"  horiz-adv-x="1024" />
      
      <glyph glyph-name="signal-tower-fill" unicode="&#59122;" d="M260.949333 38.954667A426.069333 426.069333 0 0 0 85.333333 384C85.333333 619.648 276.352 810.666667 512 810.666667s426.666667-191.018667 426.666667-426.666667a426.069333 426.069333 0 0 0-175.616-345.045333l-43.306667 74.197333a341.333333 341.333333 0 1 1-415.488 0l-43.306667-74.197333z m86.784 148.693333a256 256 0 1 0 328.533334 0l-43.946667 75.349333a170.666667 170.666667 0 1 1-240.64 0l-43.946667-75.349333zM469.333333 341.333333h85.333334l42.666666-384h-170.666666l42.666666 384z"  horiz-adv-x="1024" />
      
      <glyph glyph-name="search--line" unicode="&#59031;" d="M469.333333 810.666667c211.968 0 384-172.032 384-384s-172.032-384-384-384-384 172.032-384 384 172.032 384 384 384z m0-682.666667c164.992 0 298.666667 133.674667 298.666667 298.666667 0 165.034667-133.674667 298.666667-298.666667 298.666666-165.034667 0-298.666667-133.632-298.666666-298.666666 0-164.992 133.632-298.666667 298.666666-298.666667z m362.026667-3.029333l120.704-120.661334-60.373333-60.373333-120.661334 120.704 60.330667 60.330667z"  horiz-adv-x="1024" />
      
      <glyph glyph-name="chat--fill" unicode="&#59058;" d="M426.666667 768h170.666666a341.333333 341.333333 0 1 0 0-682.666667v-149.333333c-213.333333 85.333333-512 213.333333-512 490.666667a341.333333 341.333333 0 0 0 341.333334 341.333333z"  horiz-adv-x="1024" />
      
      <glyph glyph-name="apps-fill" unicode="&#59437;" d="M288 789.333333A181.333333 181.333333 0 0 0 469.333333 608V426.666667H288a181.333333 181.333333 0 1 0 0 362.666666z m0-448H469.333333v-181.333333A181.333333 181.333333 0 1 0 288 341.333333z m448 448a181.333333 181.333333 0 1 0 0-362.666666H554.666667V608a181.333333 181.333333 0 0 0 181.333333 181.333333zM554.666667 341.333333h181.333333A181.333333 181.333333 0 1 0 554.666667 160V341.333333z"  horiz-adv-x="1024" />
      
      <glyph glyph-name="Home" unicode="&#59034;" d="M168.832 536.96L489.813333 733.013333a42.666667 42.666667 0 0 0 44.458667 0l320.938667-196.096A85.333333 85.333333 0 0 0 896 464.128V85.333333a85.333333 85.333333 0 0 0-85.333333-85.333333H213.333333a85.333333 85.333333 0 0 0-85.333333 85.333333v378.794667a85.333333 85.333333 0 0 0 40.832 72.832zM426.666667 341.333333a42.666667 42.666667 0 0 1-42.666667-42.666666v-128a42.666667 42.666667 0 0 1 42.666667-42.666667h170.666666a42.666667 42.666667 0 0 1 42.666667 42.666667v128a42.666667 42.666667 0 0 1-42.666667 42.666666h-170.666666z"  horiz-adv-x="1024" />
      
      <glyph glyph-name="yingwen" unicode="&#59094;" d="M716.8 819.2a230.4 230.4 0 0 0 230.4-230.4v-409.6a230.4 230.4 0 0 0-230.4-230.4H307.2a230.4 230.4 0 0 0-230.4 230.4V588.8a230.4 230.4 0 0 0 230.4 230.4h409.6m0 76.8H307.2A307.2 307.2 0 0 1 0 588.8v-409.6a307.2 307.2 0 0 1 307.2-307.2h409.6a307.2 307.2 0 0 1 307.2 307.2V588.8A307.2 307.2 0 0 1 716.8 896zM176.128 603.392h316.416v-61.44H248.064v-121.6h230.4V358.4h-230.4v-132.864h256v-61.44H176.128zM847.872 360.704v-196.096h-70.144v189.952c0 51.2-24.064 76.8-71.936 76.8a64 64 0 0 1-45.312-18.432 86.272 86.272 0 0 1-25.6-58.368v-191.232h-70.4V482.304h70.144v-36.864a128 128 0 0 0 41.728 33.792 116.736 116.736 0 0 0 51.2 11.776c80.384 0 120.32-43.52 120.32-130.304z"  horiz-adv-x="1024" />
      
      <glyph glyph-name="jianti" unicode="&#59095;" d="M716.8 819.2a230.4 230.4 0 0 0 230.4-230.4v-409.6a230.4 230.4 0 0 0-230.4-230.4H307.2a230.4 230.4 0 0 0-230.4 230.4V588.8a230.4 230.4 0 0 0 230.4 230.4h409.6m0 76.8H307.2A307.2 307.2 0 0 1 0 588.8v-409.6a307.2 307.2 0 0 1 307.2-307.2h409.6a307.2 307.2 0 0 1 307.2 307.2V588.8A307.2 307.2 0 0 1 716.8 896zM335.616 573.952a489.728 489.728 0 0 0-48.384-68.352L232.96 540.672a366.848 366.848 0 0 1 78.08 128l61.44-13.568-9.728-25.6H512v-55.808h-76.8a300.288 300.288 0 0 0 29.44-48.64l-56.32-21.504a535.296 535.296 0 0 1-39.424 70.144z m-61.952-143.36h63.744v-332.8h-63.744z m79.104 97.792a628.48 628.48 0 0 0 73.728-76.8l-47.104-32.512A768 768 0 0 1 307.2 499.456z m45.056-122.368h235.264v-241.92h-235.264z m60.672-94.464h114.944v43.008h-114.944z m114.944-94.72V261.12h-114.944v-44.288zM636.672 102.4l-15.36 57.856 54.016-2.048c12.8 0 19.2 8.96 19.2 25.6v261.12h-223.744v58.368H757.76V166.4c0-43.264-23.296-65.024-70.144-65.024z m-39.168 471.552a491.008 491.008 0 0 0-37.632-59.648l-54.016 35.072a338.432 338.432 0 0 1 63.232 119.808l60.928-13.568c-4.096-11.52-6.912-20.224-8.704-25.6h169.728v-55.808h-88.064a332.8 332.8 0 0 0 27.136-43.776l-56.576-21.504a533.504 533.504 0 0 1-37.376 65.28z"  horiz-adv-x="1024" />
      
      <glyph glyph-name="fanti" unicode="&#59096;" d="M716.8 819.2a230.4 230.4 0 0 0 230.4-230.4v-409.6a230.4 230.4 0 0 0-230.4-230.4H307.2a230.4 230.4 0 0 0-230.4 230.4V588.8a230.4 230.4 0 0 0 230.4 230.4h409.6m0 76.8H307.2A307.2 307.2 0 0 1 0 588.8v-409.6a307.2 307.2 0 0 1 307.2-307.2h409.6a307.2 307.2 0 0 1 307.2 307.2V588.8A307.2 307.2 0 0 1 716.8 896zM319.744 586.24l-19.2-22.272h202.752c0-23.808 0-45.824-1.792-66.304h34.56v-39.936h-37.632c0-9.472-2.304-21.248-4.864-35.584h23.296v-32.512H486.4l-3.072-10.496 17.152-13.056a763.136 763.136 0 0 0-96-39.936l118.784 4.352c20.736 10.752 46.592 25.6 76.8 41.728l44.8-29.44a984.32 984.32 0 0 0-222.464-92.16q102.4 4.096 220.672 12.288c-17.152 13.056-30.208 22.528-39.424 28.416l44.288 28.16a1037.056 1037.056 0 0 0 136.448-97.792l-51.2-34.304c-11.52 11.008-25.6 24.064-44.288 39.424l-146.688-8.704v-68.096c0-34.56-20.224-51.2-60.928-51.2h-54.016l-11.008 51.2a478.976 478.976 0 0 1 49.664-3.072 15.616 15.616 0 0 1 17.92 17.152v51.2c-62.464-3.328-128-5.888-200.96-7.936l-13.568 51.2c17.152-1.28 34.304-1.792 51.2-1.792a784.64 784.64 0 0 1 128 39.936l-131.584-5.12-9.728 45.824a146.176 146.176 0 0 1 47.872 5.376 798.464 798.464 0 0 1 75.52 33.792l3.84 13.056h-174.848c4.864 30.208 8.192 52.992 10.24 68.096H232.448v39.936h42.496c2.304 20.48 4.096 35.84 4.864 46.08l-19.712-17.152-33.28 39.168a329.984 329.984 0 0 1 86.784 102.4l52.736-11.776-15.36-27.136h177.664v-43.008z m108.032-419.84a727.808 727.808 0 0 0-167.68-64l-23.296 49.152A623.104 623.104 0 0 1 394.752 204.8z m-106.24 296.96l-6.656-41.216h87.04a390.912 390.912 0 0 1-61.952 21.504l12.8 19.712z m41.728 68.608H330.24l-4.352-40.96h76.8a337.92 337.92 0 0 1-53.504 20.992z m44.288-109.824h35.584l6.912 41.216h-86.784a512 512 0 0 0 57.856-20.48z m44.8 68.864l1.792 40.96h-83.456a358.4 358.4 0 0 0 55.808-22.016l-12.288-18.944z m119.296 33.024q-9.216-11.264-27.648-30.72l-33.792 40.704a412.16 412.16 0 0 1 82.176 135.68l54.272-12.288-19.2-43.008h157.952v-51.2h-34.304a284.928 284.928 0 0 0-51.2-107.52 469.248 469.248 0 0 1 98.304-43.776l-28.928-51.2a460.8 460.8 0 0 0-108.288 55.808 294.656 294.656 0 0 0-111.104-52.736l-28.928 45.568a270.336 270.336 0 0 1 99.072 43.008 237.568 237.568 0 0 0-48.384 71.68zM614.4 207.104A1068.032 1068.032 0 0 0 781.824 153.6l-32-51.2a926.464 926.464 0 0 1-168.448 57.088z m-9.216 358.4a180.736 180.736 0 0 1 51.2-76.8 244.736 244.736 0 0 1 41.728 76.8z"  horiz-adv-x="1024" />
      
      <glyph glyph-name="aifadian-line" unicode="&#59029;" d="M495.899049 261.093629c-17.304811 0-31.251971-13.947161-31.251971-31.251971S478.594238 198.589686 495.899049 198.589686c17.304811 0 31.251971 13.947161 31.251971 31.251972 0 17.304811-13.947161 31.251971-31.251971 31.251971zM790.855671 167.337715c-17.304811 0-31.251971-13.947161-31.251972-31.251971s13.947161-31.251971 31.251972-31.251972 31.251971 13.947161 31.251971 31.251972c0 17.04653-13.947161 30.993691-31.251971 31.251971zM1262.99289 176.377541c-13.430599 8.264984-28.927445 13.430599-44.68257 14.980284 34.867902 84.974368 57.080047 196.293374-18.596215 306.837537-115.193217 168.657333-280.75118 256.73107-491.766556 260.863562-60.179416 1.291404-130.948343-1.549685-205.849762-4.649054-87.040614-3.35765-203.008673-8.006703-281.526023-1.549684 15.755126 8.523265 32.543375 16.788249 47.007098 23.761829 55.530362 27.119479 98.921529 48.04022 84.457807 85.232649-7.748423 21.695583-30.218848 33.059937-67.411277 34.09306C206.624604 897.755689 37.967271 852.556557 7.748423 776.363735c-17.04653-42.874605-19.887618-125.524447 152.902206-198.876182 71.027208-30.218848 271.969635-66.894715 349.453861-74.643138 17.563091-1.549685 34.867902-5.165615 51.397871-11.364353-17.821372-11.622634-35.901025-24.02011-54.238959-36.417586-31.768533 18.079653-83.941245 39.516955-122.683358 13.172318-14.463722-9.298107-23.503549-25.053233-24.02011-42.358044-0.516562-21.179022 12.397476-42.099763 26.861198-58.629731-57.080047-45.715694-103.312302-89.881703-119.84227-123.974762-18.337934-41.841482-25.828075-110.544163 8.523265-177.438879 43.391167-84.974368 138.955046-144.120661 284.625391-176.147474 190.352916-41.583202 354.619476-4.132492 463.355674 53.205835 60.437697 32.026814 103.570583 69.994085 124.233043 103.828864 6.457019-2.066246 12.914038-4.132492 19.629338-6.198738 9.298107-2.841088 18.596214-5.682177 27.37776-8.781546 28.669164-10.072949 60.695977-8.523265 85.232649 3.61593l1.291403 0.774843c17.821372 9.039826 31.510252 25.053233 37.708991 44.166009 15.238565 51.139589-29.444006 79.033911-56.563486 96.08044z m-811.776412 239.684541l-17.30481-12.655757c-5.165615 5.165615-9.814669 11.106072-13.430599 17.563091 6.7153 2.066246 18.337934-0.258281 30.735409-4.907334zM1262.99289 97.860192c-1.291404-3.874211-4.132492-6.97358-9.298107-9.814669-10.33123-5.165615-25.569795-5.423896-39.258675-0.774842-9.298107 3.35765-19.371057 6.457019-29.444006 9.556388-18.596214 5.682177-49.848186 15.238565-55.788643 22.470426-9.814669 12.914038-28.152602 15.755126-41.32492 5.940457s-15.755126-28.152602-5.940458-41.324921c3.615931-4.390773 7.490142-8.264984 12.139196-11.622634-44.940851-62.245662-242.267348-186.220424-521.468844-125.007885-125.782728 27.636041-210.498815 77.742507-244.850155 145.412065-24.794952 48.815063-19.112776 98.921529-7.231861 126.299289 34.09306 71.027208 280.75118 234.518925 438.30244 327.241716 13.947161 8.264984 18.596214 26.344637 10.33123 40.291798s-27.119479 19.629337-40.291797 10.33123c-12.655757-7.490142-55.788643-33.059937-111.060725-68.186119-18.596214 12.655757-50.881309 27.894322-102.537459 33.059936-81.874999 8.264984-270.936512 44.42429-332.149051 70.252366C139.471608 650.581007 40.033517 699.65435 61.987381 754.926432c5.165615 12.914038 29.185725 33.576498 81.100157 53.464116 35.384463 13.430599 72.318611 22.470426 109.769321 27.119479l-11.622634-5.682176c-35.384463-17.304811-73.868296-36.417586-99.954652-59.146293-1.807965 1.033123-3.615931 2.324527-5.165615 3.874211-10.847792 11.622634-29.185725 12.397476-41.06664 1.291404l-0.516562-0.516561c-11.880915-11.106072-12.139195-29.702287-1.033123-41.583202 10.589511-11.106072 26.086356-19.371057 45.715694-25.569795 0.774842-0.258281 1.291404-0.516562 2.066246-0.774842 68.702681-21.179022 190.611197-18.596214 362.367899-11.622634 74.126577 2.841088 144.120661 5.682177 202.492111 4.649054 193.710566-3.874211 339.122631-80.841876 444.75946-235.552049 64.828469-95.047318 41.583202-188.544951 4.390773-269.903388-4.649054 3.615931-9.039826 7.748423-12.655757 12.139195-10.33123 12.397476-28.669164 14.463722-41.324921 4.649054-12.655757-10.072949-14.722003-28.669164-4.649054-41.324921 5.940457-7.490142 36.675867-42.874605 74.643138-39.775236h2.066246c1.291404 0.258281 2.324527 0 3.615931 0.258281 25.828075 4.649054 42.358044 3.615931 57.596608-6.198738 20.40418-12.914038 30.218848-20.40418 28.410883-26.861199z"  horiz-adv-x="1322" />
      
      <glyph glyph-name="zhanghao1" unicode="&#59030;" d="M677.9 451.94c24.29-10.62 35.37-38.92 24.75-63.21C669.8 313.6 595.44 264 512 264s-157.8 49.6-190.65 124.73c-10.62 24.29 0.46 52.59 24.75 63.21 22.86 10 49.27 0.77 61.16-20.6l2.05-4.15C427.01 386.71 467.05 360 512 360c42.7 0 80.97 24.1 99.87 61.22l2.82 5.97c10.62 24.29 38.92 35.37 63.21 24.75zM512 792c-176.73 0-320-143.27-320-320s143.27-320 320-320 320 143.27 320 320-143.27 320-320 320z m0 96c229.75 0 416-186.25 416-416 0-152.8-82.38-286.36-205.15-358.68 85.33-32.48 162.42-84.6 225.13-152.84 17.94-19.52 16.66-49.88-2.86-67.82-19.52-17.94-49.88-16.66-67.82 2.86C783.91-2.86 652.74 56 512 56s-271.91-58.86-365.3-160.48c-17.94-19.52-48.3-20.8-67.82-2.86-19.52 17.94-20.8 48.3-2.86 67.82 62.7 68.23 139.78 120.34 225.13 152.85C178.38 185.64 96 319.2 96 472 96 701.75 282.25 888 512 888z"  horiz-adv-x="1024" />
      
      <glyph glyph-name="zuozhe" unicode="&#59028;" d="M789.504 5.632H319.488c-18.432 0-33.28-14.848-33.28-33.28s14.848-33.28 33.28-33.28h470.016c18.432 0 33.28 14.848 33.28 33.28s-14.848 33.28-33.28 33.28zM731.648 503.808c68.096 118.272 79.36 283.136 79.872 289.792 1.024 12.288-5.632 24.576-16.384 30.72-10.752 6.144-24.064 6.144-34.816-0.512-24.576-15.872-241.152-156.16-287.744-235.52-68.096-114.688-235.52-420.864-237.056-423.936-1.536-2.56-2.048-5.12-3.072-7.68l-91.648-158.72c-9.216-15.872-3.584-36.352 12.288-45.568 5.12-3.072 10.752-4.608 16.384-4.608 11.264 0 22.528 6.144 28.672 16.896L291.84 126.464c58.368 39.936 371.2 258.048 439.808 377.344z m-201.728 51.2c23.04 39.424 122.368 115.2 206.336 173.056-9.216-54.272-27.648-130.56-61.952-190.976-39.936-68.608-190.976-189.952-310.272-278.016 54.272 98.816 126.464 229.376 165.888 295.936z"  horiz-adv-x="1024" />
      
      <glyph glyph-name="weixin1" unicode="&#59027;" d="M248.3 106.7l-39.7-131.8L353.2 54c52.8-13.2 105.8-26.4 158.3-26.4 250.9 0 448.6 171.6 448.6 382.8 0 210.9-197.7 382.8-448.6 382.8-237 0-448-171.9-448-382.8 0-119 78.8-224.3 184.8-303.7zM591 529.1c0 26.3 26.1 52.8 66 52.8 26.3 0 52.8-26.4 52.8-52.8 0-26.6-26.5-52.8-52.8-52.8-39.9 0.1-66 26.2-66 52.8z m-290.2 0c0 26.3 26.5 52.8 66 52.8 26.1 0 52.4-26.4 52.4-52.8 0-26.6-26.3-52.8-52.4-52.8-39.5 0.1-66 26.2-66 52.8z m0 0"  horiz-adv-x="1024" />
      
      <glyph glyph-name="bianji" unicode="&#59025;" d="M240.484848 880.484848h360.510061a46.545455 46.545455 0 0 0 4.499394-92.873696l-4.499394-0.217213H240.484848a116.363636 116.363636 0 0 1-116.208484-110.157575l-0.155152-6.206061v-543.030303a116.363636 116.363636 0 0 1 110.157576-116.208485l6.20606-0.155151h543.030304a116.363636 116.363636 0 0 1 116.208484 110.157575l0.155152 6.206061V455.555879a46.545455 46.545455 0 0 0 92.873697 4.468363l0.217212-4.468363V128a209.454545 209.454545 0 0 0-202.100364-209.330424l-7.354181-0.124121H240.484848a209.454545 209.454545 0 0 0-209.330424 202.100363L31.030303 128V671.030303A209.454545 209.454545 0 0 0 233.130667 880.360727L240.484848 880.484848h360.510061H240.484848z m128-570.057696L900.06497 818.486303a46.545455 46.545455 0 0 0 67.61503-63.829333l-3.289212-3.475394L432.810667 243.122424a46.545455 46.545455 0 0 0-67.584 63.829334l3.258181 3.475394L900.06497 818.486303 368.515879 310.458182z"  horiz-adv-x="1024" />
      
      <glyph glyph-name="check-circle" unicode="&#59261;" d="M699 543h-46.9c-10.2 0-19.9-4.9-25.9-13.3L469 311.70000000000005l-71.2 98.8c-6 8.3-15.6 13.3-25.9 13.3H325c-6.5 0-10.3-7.4-6.5-12.7l124.6-172.8c12.7-17.7 39-17.7 51.7 0l210.6 292c3.9 5.3 0.1 12.7-6.4 12.7zM512 832C264.6 832 64 631.4 64 384s200.6-448 448-448 448 200.6 448 448S759.4 832 512 832z m0-820c-205.4 0-372 166.6-372 372s166.6 372 372 372 372-166.6 372-372-166.6-372-372-372z"  horiz-adv-x="1024" />
      
      <glyph glyph-name="dashboard" unicode="&#59127;" d="M128 341.333333l341.333333 0 0 426.666667-341.333333 0 0-426.666667zM128 0l341.333333 0 0 256-341.333333 0 0-256zM554.666667 0l341.333333 0 0 426.666667-341.333333 0 0-426.666667zM554.666667 768l0-256 341.333333 0 0 256-341.333333 0z"  horiz-adv-x="1024" />
      
      <glyph glyph-name="bullseye" unicode="&#60159;" d="M512 880C238.06 880 16 657.94 16 384s222.06-496 496-496 496 222.06 496 496S785.94 880 512 880z m0-864c-203.38 0-368 164.58-368 368 0 203.38 164.58 368 368 368 203.38 0 368-164.58 368-368 0-203.38-164.58-368-368-368z m0 624c-141.38 0-256-114.62-256-256s114.62-256 256-256 256 114.62 256 256-114.62 256-256 256z m0-384c-70.58 0-128 57.42-128 128s57.42 128 128 128 128-57.42 128-128-57.42-128-128-128z"  horiz-adv-x="1024" />
      
      <glyph glyph-name="logo-moment" unicode="&#59024;" d="M895.197 545.961l-0.028 0.067c-2.918 6.775-5.437 12.34-7.898 17.45a10.1 10.1 0 0 1-0.607 1.252c-20.169 41.944-47.309 80.128-80.675 113.502-38.231 38.24-82.724 68.23-132.236 89.136C622.559 789.021 568.122 800 511.955 800c-56.212 0-110.682-11.011-161.882-32.72-49.518-20.908-94.011-50.899-132.242-89.139-38.232-38.241-68.216-82.743-89.11-132.251C107.009 494.754 96 440.302 96 384.045c0-56.224 11.008-110.706 32.74-161.984 2.896-6.724 5.396-12.25 7.835-17.315 0.189-0.493 0.426-0.994 0.723-1.496 20.165-41.902 47.286-80.047 80.623-113.392 38.232-38.24 82.725-68.231 132.242-89.14C401.587-20.992 456.052-32 512.045-32c56.214 0 110.684 11.01 161.882 32.719 49.518 20.908 94.01 50.899 132.243 89.14 38.231 38.24 68.215 82.742 89.118 132.271C916.994 273.564 928 328.041 928 384.045c0 55.861-11.036 110.338-32.803 161.916zM671.421 406.64V699.364c33.375-16.925 63.663-38.931 90.212-65.562l0.01-0.01c23.275-23.28 43.104-49.479 59.015-77.961L671.421 406.64z m155.778-182.186c-16.871-33.258-38.875-63.559-65.557-90.246-23.271-23.276-49.464-43.109-77.939-59.026L534.542 224.454h292.657z m-630.58 319.091c16.872 33.259 38.876 63.56 65.557 90.247 23.274 23.279 49.465 43.111 77.942 59.027l149.24-149.274H196.619z m425.453-495.336c-35.537-11.606-72.506-17.481-110.118-17.481-32.898 0-65.441 4.492-96.84 13.359V255.213l206.958-207.004zM511.955 287.182c-53.398 0-96.84 43.453-96.84 96.864s43.442 96.864 96.84 96.864c53.397 0 96.839-43.453 96.839-96.864s-43.442-96.864-96.839-96.864zM401.84 719.792c35.538 11.607 72.503 17.481 110.115 17.481 32.898 0 65.436-4.492 96.839-13.36v-211.041L401.84 719.792z m463.351-335.837c0-32.909-4.49-65.455-13.357-96.864H640.671l207.042 207.008c11.604-35.547 17.478-72.525 17.478-110.144z m-482.122 96.954L176.167 273.882c-11.585 35.298-17.449 72.281-17.449 110.164 0 32.906 4.491 65.453 13.357 96.864h210.994v-0.001z m-30.672-119.468v-292.742c-33.204 16.789-63.495 38.776-90.221 65.509-23.273 23.278-43.103 49.479-59.016 77.963l149.237 149.27z"  horiz-adv-x="1024" />
      
      <glyph glyph-name="leetcode" unicode="&#60402;" d="M686.969238 130.913524l-115.039501-111.200586c-19.877051-19.919706-47.389279-28.237356-77.759367-28.237357s-57.882315 8.31765-77.802021 28.237357l-184.779799 186.102093c-19.919706 19.919706-29.943541 49.052809-29.943541 79.465551s10.023835 57.882315 29.943541 77.80202l184.225289 186.827222c19.919706 19.919706 47.986444 27.512228 78.356531 27.512228s57.882315-8.31765 77.759367-28.237357l115.039501-111.157931c21.924473-21.967128 58.223552-21.199345 81.043772 1.620876 22.82022 22.862875 23.588003 59.161953 1.66353 81.086426l-111.285895 112.43757a215.619088 215.619088 0 0 1-104.290538 57.029222l105.228939 106.764506c22.009782 21.924473 21.241999 58.266206-1.578221 81.086426-22.82022 22.82022-59.161953 23.545348-81.129081 1.620876l-430.811629-430.854284c-41.844179-41.886834-63.725997-99.683839-63.725997-163.580455 0-63.896616 21.881818-123.485115 63.725997-165.28664l185.419619-186.016783c41.844179-41.75887 99.683839-61.934504 163.537801-61.934504s121.693622 21.839164 163.580455 63.725997l111.285895 112.480225c21.924473 21.924473 21.15669 58.223552-1.66353 81.043772s-59.119299 23.588003-81.001117 1.66353z m200.86059 209.860714H455.098741c-29.943541 0-54.171363-25.763389-54.171363-57.413114s24.227822-57.413114 54.171363-57.413114h432.731087c29.900886 0 54.171363 25.763389 54.171363 57.413114s-24.270477 57.413114-54.171363 57.413114z"  horiz-adv-x="1024" />
      
      <glyph glyph-name="gitlab" unicode="&#59026;" d="M59.428571 492.571429l452.571429-580-496 360q-10.285714 7.428571-14.285714 19.714285t0 24.285715l57.714285 176z m264 0h377.142858L512-87.428571zM210.285714 842.285714l113.142857-349.714285H59.428571L172.571429 842.285714q4.571429 13.142857 18.857142 13.142857t18.857143-13.142857z m754.285715-349.714285l57.714285-176q4-12 0-24.285715t-14.285714-19.714285l-496-360 452.571429 580z m0 0h-264l113.142857 349.714285q4.571429 13.142857 18.857143 13.142857t18.857142-13.142857z"  horiz-adv-x="1024" />
      
      <glyph glyph-name="csdn" unicode="&#59018;" d="M512 896c282.784 0 512-229.216 512-512s-229.216-512-512-512S0 101.216 0 384 229.216 896 512 896z m189.952-752l11.2 108.224c-31.904-9.536-100.928-16.128-147.712-16.128-134.464 0-205.728 47.296-195.328 146.304 11.584 110.688 113.152 145.696 232.64 145.696 54.784 0 122.432-8.8 151.296-18.336L768 623.296C724.544 633.76 678.272 640 599.584 640c-203.2 0-388.704-94.88-406.4-263.488C178.336 235.04 303.584 128 535.616 128c80.672 0 138.464 6.432 166.336 16z"  horiz-adv-x="1024" />
      
      <glyph glyph-name="dribbble" unicode="&#59519;" d="M512 800C282.6 800 96 613.4 96 384s186.6-416 416-416 416 186.6 416 416S741.4 800 512 800z m275.1-191.8c49.5-60.5 79.5-137.5 80.2-221.4-11.7 2.5-129.2 26.3-247.4 11.4-2.5 6.1-5 12.2-7.6 18.3-7.4 17.3-15.3 34.6-23.6 51.5C720 521.7 779.6 598 787.1 608.2zM512 738.8c90.3 0 172.8-33.9 235.5-89.5-6.4-9.1-59.9-81-186.2-128.4-58.2 107-122.7 194.8-132.6 208 27.3 6.6 55.2 9.9 83.3 9.9zM360.9 705c9.4-12.8 72.9-100.9 131.7-205.5C326.4 455.4 180 456 164.1 456.2c23.1 110.3 97.4 201.9 196.8 248.8zM156.7 383.5c0 3.6 0.1 7.3 0.2 10.9 15.5-0.3 187.7-2.5 365.2 50.6 10.2-19.9 19.9-40.1 28.8-60.3-4.7-1.3-9.4-2.7-14-4.2C353.6 321.1 256.1 159.6 248 145.9c-56.7 63-91.3 146.3-91.3 237.6zM512 28.2c-82.2 0-157.9 28-218.1 75 6.4 13.1 78.3 152 278.7 221.9l2.3 0.8c49.9-129.6 70.5-238.3 75.8-269.5-42.6-18.2-89.5-28.3-138.7-28.2z m198.5 60.7c-3.6 21.6-22.5 125.6-69 253.3C752.9 360 850.7 330.8 862.8 327c-15.8-98.8-72.5-184.2-152.3-238.1z"  horiz-adv-x="1024" />
      
      <glyph glyph-name="yuque" unicode="&#59520;" d="M854.6 525.4c-9.9 39.4 9.9 102.2 73.4 124.4l-67.9 3.6s-25.7 90-143.6 98c-117.8 8.1-194.9 3-195 3 0.1 0 87.4-55.6 52.4-154.7-25.6-52.5-65.8-95.6-108.8-144.7-1.3-1.3-2.5-2.6-3.5-3.7C319.4 291 96 36 96 36c245.9-64.4 410.7 6.3 508.2 91.1 20.5 0.2 35.9 0.3 46.3 0.3 135.8 0 250.6 117.6 245.9 248.4-3.2 89.9-31.9 110.2-41.8 149.6z m-204.1-334c-10.6 0-26.2-0.1-46.8-0.3l-23.6-0.2-17.8-15.5c-47.1-41-104.4-71.5-171.4-87.6-52.5-12.6-110-16.2-172.7-9.6 18 20.5 36.5 41.6 55.4 63.1 92 104.6 173.8 197.5 236.9 268.5l1.4 1.4 1.3 1.5c4.1 4.6 20.6 23.3 24.7 28.1 9.7 11.1 17.3 19.9 24.5 28.6 30.7 36.7 52.2 67.8 69 102.2l1.6 3.3 1.2 3.4c13.7 38.8 15.4 76.9 6.2 112.8 22.5-0.7 46.5-1.9 71.7-3.6 33.3-2.3 55.5-12.9 71.1-29.2 5.8-6 10.2-12.5 13.4-18.7 1-2 1.7-3.6 2.3-5l5-17.7c-15.7-34.5-19.9-73.3-11.4-107.2 3-11.8 6.9-22.4 12.3-34.4 2.1-4.7 9.5-20.1 11-23.3 10.3-22.7 15.4-43 16.7-78.7 3.3-94.6-82.7-181.9-182-181.9z"  horiz-adv-x="1024" />
      
      <glyph glyph-name="linkedin" unicode="&#59195;" d="M895.657143 841.142857H128.342857c-40.571429 0-73.485714-32.914286-73.485714-73.485714v-767.314286c0-40.571429 32.914286-73.485714 73.485714-73.485714h767.314286c40.571429 0 73.485714 32.914286 73.485714 73.485714V767.657143c0 40.571429-32.914286 73.485714-73.485714 73.485714z m0-841.142857c-511.771429 0.114286-767.657143 0.228571-767.657143 0.342857 0.114286 511.771429 0.228571 767.657143 0.342857 767.657143 511.771429-0.114286 767.657143-0.228571 767.657143-0.342857-0.114286-511.771429-0.228571-767.657143-0.342857-767.657143zM190.4 498.4h135.657143v-436.342857H190.4z m67.885714 59.657143c43.314286 0 78.628571 35.2 78.628572 78.628571a78.628571 78.628571 0 1 1-157.257143 0c-0.114286-43.428571 35.085714-78.628571 78.628571-78.628571z m288.342857-280.114286c0 56.914286 10.857143 112 81.371429 112 69.485714 0 70.514286-65.028571 70.514286-115.657143v-212.228571h135.542857V301.371429c0 117.485714-25.371429 207.885714-162.628572 207.885714-65.942857 0-110.171429-36.228571-128.342857-70.514286h-1.828571v59.657143H411.085714v-436.342857h135.542857V277.942857z"  horiz-adv-x="1024" />
      
      <glyph glyph-name="youtube" unicode="&#59237;" d="M1024 387.2c0 2.514286 0 5.371429-0.114286 8.685714-0.114286 9.257143-0.342857 19.657143-0.571428 30.742857-0.914286 31.885714-2.514286 63.657143-5.028572 93.6-3.428571 41.257143-8.457143 75.657143-15.314285 101.485715a159.451429 159.451429 0 0 1-112.342858 112.571428c-32.342857 8.685714-95.657143 14.057143-184.8 17.371429-42.4 1.6-87.771429 2.628571-133.142857 3.2-15.885714 0.228571-30.628571 0.342857-43.885714 0.457143h-33.6c-13.257143-0.114286-28-0.228571-43.885714-0.457143-45.371429-0.571429-90.742857-1.6-133.142857-3.2-89.142857-3.428571-152.571429-8.8-184.8-17.371429A159.257143 159.257143 0 0 1 21.028571 621.714286C14.057143 595.885714 9.142857 561.485714 5.714286 520.228571c-2.514286-29.942857-4.114286-61.714286-5.028572-93.6-0.342857-11.085714-0.457143-21.485714-0.571428-30.742857 0-3.314286-0.114286-6.171429-0.114286-8.685714v-6.4c0-2.514286 0-5.371429 0.114286-8.685714 0.114286-9.257143 0.342857-19.657143 0.571428-30.742857 0.914286-31.885714 2.514286-63.657143 5.028572-93.6 3.428571-41.257143 8.457143-75.657143 15.314285-101.485715 14.628571-54.742857 57.6-97.942857 112.342858-112.571428 32.228571-8.685714 95.657143-14.057143 184.8-17.371429 42.4-1.6 87.771429-2.628571 133.142857-3.2 15.885714-0.228571 30.628571-0.342857 43.885714-0.457143h33.6c13.257143 0.114286 28 0.228571 43.885714 0.457143 45.371429 0.571429 90.742857 1.6 133.142857 3.2 89.142857 3.428571 152.571429 8.8 184.8 17.371429 54.742857 14.628571 97.714286 57.714286 112.342858 112.571428 6.971429 25.828571 11.885714 60.228571 15.314285 101.485715 2.514286 29.942857 4.114286 61.714286 5.028572 93.6 0.342857 11.085714 0.457143 21.485714 0.571428 30.742857 0 3.314286 0.114286 6.171429 0.114286 8.685714v6.4z m-82.285714-5.942857c0-2.4 0-5.028571-0.114286-8.114286-0.114286-8.914286-0.342857-18.742857-0.571429-29.371428-0.8-30.4-2.4-60.8-4.8-89.028572-3.085714-36.8-7.428571-66.971429-12.8-87.2-7.085714-26.4-27.885714-47.314286-54.171428-54.285714-24-6.4-84.457143-11.542857-166.628572-14.628572-41.6-1.6-86.4-2.628571-131.085714-3.2-15.657143-0.228571-30.171429-0.342857-43.2-0.342857h-32.685714l-43.2 0.342857c-44.685714 0.571429-89.371429 1.6-131.085714 3.2-82.171429 3.2-142.742857 8.228571-166.628572 14.628572-26.285714 7.085714-47.085714 27.885714-54.171428 54.285714-5.371429 20.228571-9.714286 50.4-12.8 87.2-2.4 28.228571-3.885714 58.628571-4.8 89.028572-0.342857 10.628571-0.457143 20.571429-0.571429 29.371428 0 3.085714-0.114286 5.828571-0.114286 8.114286v5.485714c0 2.4 0 5.028571 0.114286 8.114286 0.114286 8.914286 0.342857 18.742857 0.571429 29.371428 0.8 30.4 2.4 60.8 4.8 89.028572 3.085714 36.8 7.428571 66.971429 12.8 87.2 7.085714 26.4 27.885714 47.314286 54.171428 54.285714 24 6.4 84.457143 11.542857 166.628572 14.628572 41.6 1.6 86.4 2.628571 131.085714 3.2 15.657143 0.228571 30.171429 0.342857 43.2 0.342857h32.685714l43.2-0.342857c44.685714-0.571429 89.371429-1.6 131.085714-3.2 82.171429-3.2 142.742857-8.228571 166.628572-14.628572 26.285714-7.085714 47.085714-27.885714 54.171428-54.285714 5.371429-20.228571 9.714286-50.4 12.8-87.2 2.4-28.228571 3.885714-58.628571 4.8-89.028572 0.342857-10.628571 0.457143-20.571429 0.571429-29.371428 0-3.085714 0.114286-5.828571 0.114286-8.114286v-5.485714zM410.285714 230.857143l265.142857 154.285714-265.142857 152z"  horiz-adv-x="1024" />
      
      <glyph glyph-name="Instagram" unicode="&#59019;" d="M520.533 622.933c40.534 0 78.934-10.666 115.2-32s64-49.066 83.2-83.2c21.334-36.266 32-74.666 32-115.2s-10.666-78.933-32-115.2c-21.333-36.266-49.066-64-83.2-83.2-36.266-21.333-74.666-32-115.2-32s-78.933 10.667-115.2 32c-36.266 21.334-64 49.067-83.2 83.2-21.333 36.267-32 74.667-32 115.2s10.667 78.934 32 115.2 49.067 64 83.2 83.2 74.667 32 115.2 32z m0-379.733c40.534 0 76.8 14.933 106.667 44.8 29.867 29.867 44.8 64 44.8 106.667s-14.933 76.8-44.8 106.666c-29.867 29.867-64 44.8-106.667 44.8s-76.8-14.933-106.666-44.8c-29.867-29.866-44.8-64-44.8-106.666S384 317.867 413.867 288c29.866-29.867 66.133-44.8 106.666-44.8z m294.4 388.267c-2.133-14.934-6.4-27.734-17.066-38.4s-21.334-14.934-36.267-14.934-27.733 4.267-38.4 14.934c-10.667 10.666-17.067 23.466-17.067 38.4s4.267 27.733 17.067 38.4c10.667 10.666 23.467 14.933 38.4 14.933s27.733-4.267 38.4-14.933c8.533-10.667 14.933-23.467 14.933-38.4zM966.4 578.133c2.133-36.266 2.133-100.266 2.133-185.6s0-149.333-2.133-187.733c-2.133-38.4-8.533-70.4-17.067-98.133-12.8-34.134-29.866-61.867-55.466-87.467s-53.334-42.667-87.467-55.467c-27.733-8.533-61.867-14.933-98.133-17.066S608-55.467 520.533-55.467s-149.333 0-187.733 2.134-70.4 8.533-98.133 19.2C200.533-23.467 172.8-6.4 147.2 19.2s-42.667 53.333-55.467 87.467C83.2 134.4 76.8 168.533 74.667 204.8c-2.134 38.4-2.134 100.267-2.134 187.733s0 149.334 2.134 187.734 8.533 70.4 17.066 98.133c12.8 34.133 29.867 61.867 55.467 87.467s53.333 42.666 87.467 55.466C262.4 829.867 296.533 836.267 332.8 838.4s100.267 2.133 187.733 2.133 149.334 0 187.734-2.133 70.4-8.533 98.133-17.067c34.133-12.8 61.867-29.866 87.467-55.466s42.666-53.334 55.466-87.467c8.534-27.733 14.934-61.867 17.067-100.267zM870.4 128c8.533 23.467 12.8 57.6 17.067 108.8 2.133 29.867 2.133 70.4 2.133 123.733v64c0 55.467 0 96-2.133 123.734-2.134 51.2-8.534 87.466-17.067 108.8-14.933 40.533-44.8 70.4-85.333 85.333-21.334 8.533-57.6 12.8-108.8 14.933-29.867 2.134-70.4 2.134-123.734 2.134h-64c-53.333 0-93.866 0-123.733-2.134C315.733 755.2 279.467 748.8 256 742.4c-40.533-14.933-70.4-44.8-85.333-85.333-8.534-21.334-12.8-57.6-14.934-108.8-2.133-29.867-2.133-70.4-2.133-123.734v-64c0-53.333 0-93.866 2.133-123.733 2.134-49.067 8.534-85.333 14.934-108.8 17.066-40.533 46.933-70.4 85.333-85.333 23.467-8.534 57.6-12.8 108.8-17.067 29.867-2.133 70.4-2.133 123.733-2.133h64c55.467 0 96 0 123.734 2.133 51.2 2.133 87.466 8.533 108.8 17.067 40.533 17.066 70.4 44.8 85.333 85.333z"  horiz-adv-x="1024" />
      
      <glyph glyph-name="slack" unicode="&#60577;" d="M215.125333 248.96a107.861333 107.861333 0 0 0-107.52-107.648A107.861333 107.861333 0 0 0 0 248.96a107.818667 107.818667 0 0 0 107.605333 107.52h107.52v-107.52z m54.229334 0a107.818667 107.818667 0 0 0 107.562666 107.52 107.818667 107.818667 0 0 0 107.562667-107.52v-269.354667A107.861333 107.861333 0 0 0 376.917333-128a107.861333 107.861333 0 0 0-107.562666 107.605333v269.354667zM376.917333 680.874667a107.861333 107.861333 0 0 0-107.562666 107.52A107.861333 107.861333 0 0 0 376.917333 896a107.861333 107.861333 0 0 0 107.562667-107.605333v-107.52H376.917333z m0-54.229334a107.861333 107.861333 0 0 0 107.562667-107.562666 107.861333 107.861333 0 0 0-107.562667-107.562667H107.605333A107.861333 107.861333 0 0 0 0 519.082667a107.861333 107.861333 0 0 0 107.605333 107.562666h269.312z m431.872-107.562666a107.861333 107.861333 0 0 0 107.605334 107.562666A107.861333 107.861333 0 0 0 1024 519.082667a107.861333 107.861333 0 0 0-107.605333-107.562667h-107.605334V519.082667z m-54.101333 0a107.861333 107.861333 0 0 0-107.648-107.562667 107.818667 107.818667 0 0 0-107.52 107.562667V788.394667A107.818667 107.818667 0 0 0 647.04 896a107.861333 107.861333 0 0 0 107.648-107.605333v-269.312z m-107.648-431.872a107.861333 107.861333 0 0 0 107.648-107.605334A107.861333 107.861333 0 0 0 647.04-128a107.818667 107.818667 0 0 0-107.52 107.605333v107.605334h107.52z m0 54.101333a107.818667 107.818667 0 0 0-107.52 107.648 107.776 107.776 0 0 0 107.52 107.52h269.354667A107.818667 107.818667 0 0 0 1024 248.96a107.861333 107.861333 0 0 0-107.605333-107.648h-269.354667z"  horiz-adv-x="1024" />
      
      <glyph glyph-name="baidu" unicode="&#59020;" d="M541.66308594 456.30377198c25.9552002-11.4944458 46.05194092-33.07434083 60.4385376-57.47222901 18.68774414-27.29003906 40.26763916-51.76208497 63.25653076-74.75097656 21.50573731-21.50573731 44.49462891-43.15979004 68.96667481-63.25653076 4.37530518-2.89215088 8.67645263-7.19329834 11.49444579-10.08544922 18.68774414-18.68774414 28.77319336-43.08563232 31.66534424-68.96667481 2.89215088-27.29003906-4.30114747-54.65423584-14.38659668-79.05212402-8.60229492-18.68774414-22.98889161-33.07434083-40.26763916-43.15979004-24.4720459-12.90344239-53.17108154-15.79559326-80.46112061-15.79559326a295.14770508 295.14770508 0 0 0-79.05212402 14.38659667 265.26214599 265.26214599 0 0 1-94.921875 7.19329835c-14.38659667-1.4831543-28.69903565-5.78430176-44.4946289-8.67645265-33.07434083-5.71014404-67.63183594-7.11914063-100.70617677-5.71014404a96.4050293 96.4050293 0 0 0-71.85882568 37.37548829 131.62994385 131.62994385 0 0 0-22.9888916 44.4946289 180.72235107 180.72235107 0 0 0-7.19329833 47.4609375c1.4831543 18.68774414 5.78430176 37.37548828 15.79559326 53.24523926 12.9776001 24.4720459 34.55749512 44.49462891 56.06323242 61.77337647 5.78430176 5.78430176 12.9776001 8.67645263 18.68774414 15.79559326l31.66534423 28.77319336c18.68774414 18.68774414 37.37548828 38.85864258 51.76208497 60.36437988 4.30114747 5.78430176 7.19329834 12.9776001 12.90344238 18.68774414 18.68774414 24.4720459 48.9440918 43.15979004 80.53527832 45.97778321 18.68774414 2.96630859 37.37548828-1.40899658 53.17108154-8.60229493zM477.14587402 351.37060547h-45.9777832v-67.48352051h-48.9440918a51.68792724 51.68792724 0 0 1-15.79559326-2.96630859c-12.90344239-4.30114747-24.4720459-11.4944458-34.4833374-20.09674072a94.40277099 94.40277099 0 0 1-24.4720459-41.67663575 101.74438477 101.74438477 0 0 1 1e-8-41.67663574c2.89215088-12.9776001 7.19329834-27.36419677 15.79559326-37.37548828 11.56860352-14.38659667 27.36419677-25.9552002 45.9777832-30.18218994 5.78430176-0.96405029 11.56860352-1.33483887 17.27874755-1.40899659H477.14587402V351.37060547z m73.26782227-71.85882568h-47.4609375v-122.21191407a48.9440918 48.9440918 0 0 1 48.9440918-48.86993408h112.12646484V279.51177979h-45.9777832v-132.22320557h-48.9440918a18.46527099 18.46527099 0 0 0-14.38659668 5.71014404 23.21136474 23.21136474 0 0 0-4.30114746 12.9776001V279.43762207z m-119.31976319-35.96649171v-96.25671386h-37.37548828a40.86090088 40.86090088 0 0 0-33.07434081 15.79559326c-5.71014404 8.60229492-10.01129151 20.09674073-8.60229493 30.18218994 0 8.60229492 1.4831543 17.27874756 4.30114746 25.88104248a47.09014893 47.09014893 0 0 0 22.98889161 21.50573731c2.96630859 1.4831543 5.78430176 2.96630859 10.08544922 2.96630859h41.67663573z m352.24914552 284.69146729c14.31243896-8.67645263 25.80688477-21.57989502 34.4833374-35.9664917 5.71014404-12.9776001 11.4944458-25.88104248 11.4944458-40.26763916 0-20.09674073 1.4831543-40.26763916-2.89215088-58.95538329a89.13757325 89.13757325 0 0 0-17.27874756-37.37548829 63.55316162 63.55316162 0 0 0-33.0001831-21.50573731c-12.9776001-2.96630859-27.36419677-4.37530518-40.26763916-2.96630859a83.72406006 83.72406006 0 0 0-44.56878662 15.86975098 70.00488281 70.00488281 0 0 0-22.98889161 34.4833374c-5.78430176 17.27874756-5.78430176 37.37548828-5.78430175 56.06323242 0 20.17089844 2.89215088 38.85864258 11.49444579 57.54638672 5.78430176 12.90344239 14.38659667 24.4720459 27.36419679 33.07434082 8.60229492 4.30114747 18.68774414 7.11914063 28.69903563 8.60229492 17.27874756 2.89215088 37.37548828 0 53.17108155-8.60229492z m-493.14880372 54.58007812c20.17089844-11.4944458 34.55749512-28.77319336 44.64294434-48.86993407 2.81799317-8.60229492 7.11914063-17.27874756 7.11914063-27.29003906 2.96630859-22.98889161 1.4831543-47.4609375-4.30114747-68.96667481a82.68585205 82.68585205 0 0 0-24.47204589-40.26763917 82.61169434 82.61169434 0 0 0-54.58007813-20.17089843 64.29473877 64.29473877 0 0 0-44.49462891 17.27874756c-15.86975098 14.38659667-25.9552002 34.4833374-31.66534424 54.58007813-2.89215088 14.38659667-5.78430176 28.77319336-2.89215088 43.15979003 2.89215088 24.4720459 10.08544922 47.4609375 24.47204591 68.96667481a62.21832276 62.21832276 0 0 0 41.67663573 28.77319336 70.15319825 70.15319825 0 0 0 44.49462891-7.19329835zM646.74456787 733.7277832c12.90344239-5.71014404 22.98889161-15.79559326 31.59118653-27.29003906 11.56860352-15.79559326 20.17089844-34.4833374 22.98889159-53.17108154 1.4831543-14.38659667 0-27.29003906-4.30114745-40.26763916a119.3939209 119.3939209 0 0 0-18.68774414-45.97778321c-8.60229492-11.4944458-18.68774414-22.98889161-31.59118653-30.18218994a61.99584961 61.99584961 0 0 0-38.78448486-8.60229492c-15.86975098 1.40899658-33.07434083 7.11914063-44.56878663 18.68774414-12.9776001 11.4944458-18.68774414 27.29003906-22.98889159 43.08563233a208.01239013 208.01239013 0 0 0-1.4831543 51.76208496 113.46130372 113.46130372 0 0 0 17.27874756 43.08563232c8.60229492 14.38659667 18.68774414 25.9552002 30.18218994 37.37548828 8.60229492 5.78430176 20.09674073 12.9776001 31.59118652 15.86975098 10.08544922 1.40899658 20.17089844 0 28.77319336-4.37530518zM451.19067383 745.29638672c18.68774414-12.9776001 30.18218994-31.66534424 37.37548828-53.24523926 11.4944458-33.07434083 10.01129151-68.96667481-2.96630859-100.63201904a103.74664307 103.74664307 0 0 0-28.69903565-41.67663574 72.37792969 72.37792969 0 0 0-37.37548828-15.79559326 63.03405762 63.03405762 0 0 0-38.78448487 12.97760009c-17.27874756 12.90344239-28.77319336 33.0001831-34.4833374 53.17108155a153.06152344 153.06152344 0 0 0 2.81799317 94.921875c7.19329834 18.61358643 17.27874756 34.40917969 33.07434082 45.9777832a63.99810791 63.99810791 0 0 0 28.77319336 12.90344238 56.06323242 56.06323242 0 0 0 40.26763916-8.60229492z"  horiz-adv-x="1024" />
      
      <glyph glyph-name="discord-line" unicode="&#59311;" d="M593.664 273.92a383.914667 383.914667 0 0 0-20.650667-4.437333 301.226667 301.226667 0 0 0-113.664 0.426666c-6.570667 1.28-15.872 3.541333-27.861333 6.741334l-39.296-51.072c-96.981333 3.114667-133.845333 68.096-133.845333 68.096 0 144.256 63.189333 261.205333 63.189333 261.205333 63.189333 48.341333 123.306667 47.018667 123.306667 47.018667l17.194666-22.4a47.786667 47.786667 0 0 0 4.778667 0.426666 363.818667 363.818667 0 0 0 98.730667-0.426666l18.858666 22.4s60.16 1.322667 123.306667-47.061334c0 0 63.232-116.906667 63.232-261.162666 0 0-37.333333-64.938667-134.314667-68.096l-42.965333 48.384zM429.909333 426.666667C404.266667 426.666667 384 407.466667 384 384s20.693333-42.666667 45.909333-42.666667c25.6 0 45.866667 19.2 45.866667 42.666667 0.426667 23.466667-20.224 42.666667-45.866667 42.666667z m164.181334 0c-25.6 0-45.866667-19.2-45.866667-42.666667s20.693333-42.666667 45.866667-42.666667c25.642667 0 45.909333 19.2 45.909333 42.666667s-20.266667 42.666667-45.909333 42.666667zM896-85.333333l-212.906667 213.333333H810.666667V725.333333H213.333333v-597.333333h469.461334l24.32-85.333333H213.333333a85.333333 85.333333 0 0 0-85.333333 85.333333V725.333333a85.333333 85.333333 0 0 0 85.333333 85.333334h597.333334a85.333333 85.333333 0 0 0 85.333333-85.333334v-810.666666z"  horiz-adv-x="1024" />
      
      <glyph glyph-name="cnblogs" unicode="&#59021;" d="M851.404 723.404c-187.462 187.461-491.346 187.461-678.808 0-187.461-187.462-187.461-491.346 0-678.808 187.462-187.461 491.346-187.461 678.808 0 187.461 187.462 187.461 491.346 0 678.808zM387.33 167.913a47.084 47.084 0 1 0-66.633 66.502 47.084 47.084 0 0 0 66.633-66.502z m205.527-1.397a38.75 38.75 0 0 0-76.625 11.52h-0.044a6.545 6.545 0 0 1-0.044-0.305v0.349c0.306 2.618 2.051 20.727-2.967 44.99a174.24 174.24 0 0 1-48.567 89.28 172.102 172.102 0 0 1-88.8 48.305 156.698 156.698 0 0 1-42.458 2.923 38.662 38.662 0 0 0-35.39 65.324 38.618 38.618 0 0 0 21.12 10.822v0.218c4.452 0.742 111.142 16.45 200.335-72.742 89.018-89.018 74.182-196.145 73.44-200.727z m175.2-7.592a38.75 38.75 0 0 0-65.673-21.382 39.49 39.49 0 0 0-11.65 33.73c0.087 0.35 5.105 37.484-5.062 88.975-13.31 67.375-45.295 126.895-94.953 176.902-50.007 49.702-109.527 81.644-176.945 94.953-51.491 10.167-88.582 5.193-89.019 5.149h0.219-0.044a39.927 39.927 0 0 0-44.684 32.902 38.836 38.836 0 0 0 32.204 44.378c1.92 0.305 47.869 7.33 111.273-4.364a411.753 411.753 0 0 0 106.254-34.952 425.76 425.76 0 0 0 114.633-82.255l0.916-0.96 0.96-0.873a425.89 425.89 0 0 0 82.255-114.72c16.407-33.6 28.145-69.294 34.996-106.21 11.651-63.404 4.67-109.353 4.32-111.273z"  horiz-adv-x="1024" />
      
      <glyph glyph-name="juejin" unicode="&#59022;" d="M465.189 734.208c-22.967-18.14-44.325-35.109-47.397-37.742l-5.851-4.68 10.971-8.632c5.998-4.827 11.85-9.508 13.02-10.532 1.17-1.024 17.993-14.336 37.156-29.696l34.962-27.795 5.267 3.95c2.925 2.194 23.259 18.432 45.348 35.986 21.943 17.555 41.253 32.768 42.716 33.646 1.609 1.024 2.779 2.194 2.779 2.78 0 0.438-9.655 8.63-21.504 17.846-11.995 9.363-22.674 17.847-23.845 18.871-15.945 13.02-49.737 39.059-50.76 39.059-0.586-0.147-19.896-14.922-42.862-33.061z m233.325-180.37C507.465 402.725 508.928 403.895 505.417 406.089c-3.072 1.902-11.556 8.485-64.073 50.03-9.07 7.168-18.578 14.775-21.358 16.823-2.78 2.194-8.777 6.875-13.312 10.532-4.68 3.657-10.679 8.339-13.312 10.533-13.165 10.24-71.095 56.027-102.107 80.457-5.852 4.681-11.41 8.485-12.142 8.485-0.731 0-10.971-7.754-22.674-17.116-11.703-9.508-22.674-18.286-24.284-19.456-1.755-1.17-5.12-3.95-7.46-6.144-2.34-2.34-4.828-4.096-5.413-4.096-3.072 0-0.731-3.072 6.437-8.777 4.096-3.218 8.777-6.875 10.094-8.046 1.316-1.024 10.24-8.045 19.748-15.506s23.26-18.286 30.428-23.99c19.31-15.215 31.89-25.308 127.853-101.084 47.836-37.742 88.796-69.779 90.844-71.095 3.657-2.487 3.95-2.487 7.46 0.292a1041.42 1041.42 0 0 1 16.092 12.727c6.875 5.413 14.775 11.703 17.554 13.897 30.135 23.699 80.018 63.05 81.774 64.512 1.17 1.024 12.434 9.802 24.868 19.603s37.888 29.696 56.32 44.324c18.579 14.629 46.227 36.425 61.733 48.567 15.506 12.142 27.794 22.528 27.502 23.26-0.878 1.17-57.637 47.104-59.978 48.274-0.731 0.439-18.578-12.727-39.497-29.257zM57.93 406.674c-15.215-12.288-28.527-23.405-29.697-24.576-2.34-2.194-5.412 0.44 80.018-66.852 33.207-26.185 32.622-25.747 57.637-45.495 10.386-8.192 36.279-28.672 57.783-45.495 38.18-30.135 44.91-35.401 52.663-41.545 2.048-1.756 22.967-18.14 46.372-36.572 23.26-18.432 74.167-58.514 112.933-89.088 38.912-30.573 71.095-55.734 71.826-56.027 0.732-0.293 7.46 4.389 14.921 10.386 21.797 16.97 90.259 70.949 101.523 79.872 5.705 4.535 12.873 10.24 15.945 12.58 3.072 2.488 6.436 5.12 7.314 5.852 0.878 0.878 11.85 9.509 24.283 19.31 20.773 16.091 59.1 46.226 64.366 50.615 1.17 1.024 5.12 4.096 8.777 6.875 3.657 2.78 7.9 6.29 9.509 7.607 1.609 1.317 14.775 11.703 29.257 23.113 29.11 22.82 42.277 33.207 88.503 69.632 17.262 13.605 32.475 25.454 33.646 26.478 2.486 2.048 31.451 24.869 44.617 35.255 4.827 3.657 9.07 7.168 9.508 7.607 0.44 0.585 5.998 4.827 12.435 9.8 6.436 4.828 13.165 10.24 15.067 11.85l3.365 2.926-9.948 7.753c-5.412 4.388-10.24 8.192-10.679 8.63-1.17 1.317-22.381 18.433-30.135 24.284-3.95 3.072-7.314 5.998-7.606 6.73-1.317 3.071-6.73-0.147-29.258-17.994-13.458-10.532-25.746-20.187-27.355-21.504-1.61-1.463-10.533-8.338-19.749-15.652-9.216-7.168-17.115-13.459-17.554-13.898-0.439-0.438-6.583-5.412-13.897-10.971-7.168-5.559-15.214-11.703-17.7-13.75-4.974-4.097-5.413-4.39-20.334-16.239-5.56-4.388-11.264-8.777-12.435-9.8-1.17-1.025-20.333-16.092-42.422-33.354-22.09-17.408-41.546-32.768-43.155-34.084-1.609-1.463-14.482-11.557-28.525-22.528s-40.814-32.037-59.539-46.812c-18.578-14.775-42.276-33.353-52.516-41.399s-23.26-18.285-28.965-22.82l-10.386-8.339-4.389 3.072c-2.34 1.756-4.68 3.511-5.12 3.95-0.439 0.439-4.973 4.096-10.24 8.046-11.849 9.216-14.482 11.264-16.676 13.166-0.878 0.877-4.243 3.51-7.46 5.851-3.22 2.487-6.145 4.681-6.584 5.12-0.439 0.439-6.875 5.705-14.482 11.703-7.607 5.851-14.921 11.556-16.091 12.58-1.317 1.17-17.116 13.605-35.255 27.795-17.993 14.19-35.109 27.648-38.035 29.842-5.705 4.681-33.499 26.624-125.074 98.743-34.523 27.209-72.704 57.344-84.846 66.852-49.737 39.498-55.15 43.594-56.905 43.447-0.877 0-14.043-10.24-29.257-22.528z"  horiz-adv-x="1024" />
      
      <glyph glyph-name="steam" unicode="&#60450;" d="M1008 384c0-274-222.4-496-496.8-496-227.6 0-419.2 152.6-478 360.8l190.4-78.6c12.8-64.2 69.8-112.8 137.8-112.8 78.4 0 143.8 64.8 140.4 147l169 120.4c104.2-2.6 191.6 81.8 191.6 187 0 103.2-84 187-187.4 187s-187.4-84-187.4-187v-2.4L369.2 338c-31 1.8-61.4-6.8-87-24.2L16 423.8C36.4 679.2 250.2 880 511.2 880 785.6 880 1008 658 1008 384zM327.4 127.4l-61 25.2a105.58 105.58 0 0 1 54.4-51.6c53.8-22.4 115.6 3.2 138 56.8 10.8 26 11 54.6 0.2 80.6-10.8 26-31 46.4-57 57.2-25.8 10.8-53.4 10.4-77.8 1.2l63-26c39.6-16.4 58.4-61.8 41.8-101.4-16.6-39.8-62-58.4-101.6-42z m347.6 259.8c-68.8 0-124.8 56-124.8 124.6s56 124.6 124.8 124.6 124.8-56 124.8-124.6-55.8-124.6-124.8-124.6z m0.2 31.2c51.8 0 93.8 42 93.8 93.6 0 51.8-42 93.6-93.8 93.6s-93.8-42-93.8-93.6c0.2-51.6 42.2-93.6 93.8-93.6z"  horiz-adv-x="1024" />
      
      <glyph glyph-name="telegram" unicode="&#60453;" d="M512 880C238 880 16 658 16 384s222-496 496-496 496 222 496 496S786 880 512 880z m243.6-339.8l-81.4-383.6c-6-27.2-22.2-33.8-44.8-21l-124 91.4-59.8-57.6c-6.6-6.6-12.2-12.2-25-12.2l8.8 126.2 229.8 207.6c10 8.8-2.2 13.8-15.4 5l-284-178.8-122.4 38.2c-26.6 8.4-27.2 26.6 5.6 39.4l478.2 184.4c22.2 8 41.6-5.4 34.4-39z"  horiz-adv-x="1024" />
      
      <glyph glyph-name="toutiao" unicode="&#59023;" d="M1024.431158 107.358316L0 53.786947V660.318316l1024.431158 53.463579v-606.423579zM279.174737 489.148632V551.073684l-140.126316 12.719158v-61.978947l140.126316-12.665263z m-140.126316-30.234948v-61.978947l140.126316-12.719158v61.978947l-140.126316 12.773053z m359.046737-161.738105l-395.587369-20.641684v55.511579l395.587369 20.695579v-55.565474z m423.450947 22.150737l-395.587368-20.58779v55.511579l395.587368 20.695579v-55.565473z m-21.989052 228.675368l-287.797895-15.036631v55.511579l287.797895 15.090526v-55.565474zM388.581053 590.740211l-63.056842-3.233685c-1.562947-125.305263-3.341474-195.907368-26.354527-246.406737-22.959158-50.499368-71.787789-93.615158-169.229473-178.176-4.096-3.449263-8.192-7.114105-12.503579-10.778947l99.166315 5.12c162.169263 142.713263 168.474947 173.702737 171.978106 433.475369z m48.289684-324.446316l-75.991579-3.934316 61.062737-94.423579 76.045473 4.042105-61.116631 94.31579z m424.097684 22.150737l-76.099368-3.988211 61.116631-94.315789 75.991579 3.98821-61.008842 94.31579z m-197.685895-10.34779l-76.045473-4.042105-61.116632-100.621474 75.991579 3.934316 61.170526 100.783158z m92.16-92.752842l-64.458105-3.341474v212.345263l64.458105 3.449264v-212.453053z m86.177685 415.528421V561.852632c-36.702316-31.420632-110.807579-84.830316-315.715369-129.940211v-59.392c248.885895 53.517474 333.716211 128.754526 373.652211 166.858105V603.567158l-57.936842-2.694737zM598.339368 552.96l-7.814736 5.389474-53.571369-35.139369 26.408421-19.186526c43.870316-30.073263 123.688421-85.045895 357.968842-111.023158v59.284211c-212.614737 24.737684-283.701895 73.620211-322.991158 100.675368zM536.899368 523.264l54.164211-32.660211 65.212632 100.244211-59.553685 24.629895-59.823158-92.16z"  horiz-adv-x="1077" />
      
      <glyph glyph-name="weixin" unicode="&#59014;" d="M684.2624 559.360922c10.256998 0 20.405555-0.753152 30.472294-1.873715C687.354982 684.973773 551.049933 779.695104 395.467162 779.695104c-173.940736 0-316.424704-118.557184-316.424704-269.103923 0-86.8992 47.403622-158.259405 126.61801-213.608038l-31.648051-95.184896 110.615859 55.468339c39.581082-7.834419 71.337677-15.888896 110.837965-15.888896 9.929523 0 19.775181 0.490189 29.539021 1.257677-6.182093 21.154816-9.763738 43.312435-9.763738 66.302054C415.242342 447.174861 533.955994 559.360922 684.2624 559.360922zM514.125517 645.150822c23.825613 0 39.60873-15.673958 39.60873-39.484314 0-23.715123-15.783117-39.607091-39.60873-39.607091-23.716147 0-47.513088 15.891968-47.513088 39.607091C466.612429 629.477888 490.40937 645.150822 514.125517 645.150822zM292.671693 566.060544c-23.713075 0-47.648154 15.891968-47.648154 39.607091 0 23.810253 23.934054 39.484314 47.648154 39.484314 23.715123 0 39.499264-15.673958 39.499264-39.484314C332.170957 581.95241 316.386816 566.060544 292.671693 566.060544zM973.059686 312.739021c0 126.504141-126.593434 229.620736-268.773478 229.620736-150.553088 0-269.128499-103.116493-269.128499-229.620736 0-126.72215 118.576538-229.620736 269.128499-229.620736 31.510938 0 63.294157 7.945933 94.942208 15.877632l86.79127-47.525376-23.796941 79.073894C925.73696 178.193715 973.059686 241.378714 973.059686 312.739021zM617.027379 352.331776c-15.755469 0-31.648051 15.673958-31.648051 31.661056 0 15.766118 15.892582 31.643648 31.648051 31.643648 23.934054 0 39.60873-15.877632 39.60873-31.643648C656.636109 368.005734 640.961434 352.331776 617.027379 352.331776zM791.077581 352.331776c-15.647027 0-31.430144 15.673958-31.430144 31.661056 0 15.766118 15.783117 31.643648 31.430144 31.643648 23.715123 0 39.605658-15.877632 39.605658-31.643648C830.684262 368.005734 814.793626 352.331776 791.077581 352.331776z"  horiz-adv-x="1024" />
      
      <glyph glyph-name="douban" unicode="&#59015;" d="M745.263671 587.993021c-76.945463 0.651846-153.900136 0.145309-230.851739 0.145309-78.587869 0-157.179832 0.51063-235.762585-0.144286-76.91374-0.64059-113.155153-37.47859-114.357538-115.179252-0.532119-34.373879-0.843204-68.785619 0.124843-103.142102 1.924839-68.321038 39.491433-107.782795 106.659205-108.2177 160.443156-1.041726 320.903707-0.989537 481.346863-0.01535 65.212234 0.397043 103.699804 38.238906 106.98871 103.124705 1.904373 37.561477 1.570775 75.325569 0.378623 112.939235C857.452823 551.262468 819.995723 587.361641 745.263671 587.993021zM777.411859 393.914814c-1.680269-36.818557-13.985526-50.211589-50.943252-51.238988-50.727335-1.411139-101.522208-0.416486-152.287405-0.444115-21.288862-0.011256-42.578748-0.002047-63.86761-0.002047-67.143213 0.011256-134.289496-0.440022-201.426569 0.156566-51.862181 0.462534-62.317301 11.634991-63.063291 64.289212-0.254803 18.008142-0.948605 36.096103 0.346901 54.019311 2.240017 31.015388 14.765285 45.408189 46.033429 45.62206 145.740292 0.99977 291.492864 1.011027 437.235203 0.107447 33.930787-0.211824 46.167482-14.381545 47.938825-48.662303C778.475074 436.5304 778.379906 415.159674 777.411859 393.914814zM861.442694 75.827245c-39.305191 0.465604-78.623685-0.197498-117.927853 0.354064-10.203386 0.14224-20.36891 2.969635-33.4396 5.015224 8.246825 15.900132 14.029528 27.506471 20.230764 38.883589 6.268774 11.494799 12.970406 22.751167 19.452028 34.131355 9.774621 17.158798 11.231809 34.143635-2.0241 50.225915-19.677155 23.87271-49.124837 20.515243-68.793806-9.949606-19.516496-30.225395-37.157271-61.739133-54.209646-93.446275-9.577123-17.807574-21.533432-26.106588-42.62582-25.488511-47.459918 1.393743-95.000678 1.094938-142.482085 0.12996-18.751063-0.381693-30.286794 6.458085-39.10974 22.821775-16.309454 30.249955-33.653471 59.98007-51.584865 89.303932-18.86158 30.842449-36.950564 38.615483-59.179844 27.41335-25.01779-12.607132-29.537733-34.834366-12.609179-66.940598 11.279904-21.392216 23.669072-42.197054 40.679491-72.333422-41.368176 0-72.323189 0.034792-103.278201-0.011256-22.929222-0.032746-45.930075 0.920976-68.771293-0.543376-26.974351-1.725294-41.922808-15.998369-43.027979-37.97387-1.203408-23.947412 14.712073-39.613206 44.007283-42.23594 11.381212-1.017166 22.915919-0.39295 34.380018-0.39295 219.482807-0.013303 438.96766-0.01228 658.450467-0.011256 6.55223 0 13.105482-0.077771 19.655665 0.039909 41.87062 0.7552 61.204967 13.087063 62.059428 39.520085C922.172847 61.558263 902.831336 75.337081 861.442694 75.827245zM206.91456 691.893392c101.541651-0.38374 203.086371-0.121773 304.630069-0.130983 65.512063-0.011256 131.023102-0.055259 196.535165 0.005117 42.582841 0.037862 85.208661-0.926092 127.728056 0.74599 29.951149 1.175779 44.87607 17.368576 43.529399 41.860387-1.221828 22.222117-15.990183 35.763528-42.648332 38.60832-6.484691 0.692778-13.091156 0.313132-19.640316 0.314155-203.087395 0.00921-406.174789 0.11768-609.262184-0.084934-44.895513-0.046049-64.48057-13.859659-63.22395-42.842761C145.725966 703.54578 163.29511 692.058145 206.91456 691.893392z"  horiz-adv-x="1024" />
      
      <glyph glyph-name="29" unicode="&#59016;" d="M571.1 642v-527.7h52.3l19-66.2 92 66.2h129.4V642H571.1z m233.3-467.8h-60.8L666 115l-16.9 59.2h-16v409h171.3v-409zM540.7 343.4s0 56.4-27.8 59.5c-27.9 3.1-114.5 0-114.5 0V578.5h128.4s-1.5 58-26.3 58H291.6l32.5 95.6s-52.6-3.1-71.2-36c-18.5-33-78.9-202.2-78.9-202.2s20.1-9.4 54.2 15.7c34 25.1 44.9 69 44.9 69l61.9 3.1 1.5-178.7s-106.8 1.6-128.4 0c-21.7-1.6-34-59.5-34-59.5h162.5s-13.9-98.7-55.7-170.8C239 100.5 160.1 44.10000000000002 160.1 44.10000000000002s57.2-23.5 112.9 9.4 96.8 177.7 96.8 177.7l130.7-162s11.9 77.1-2.1 98.9c-14 21.8-90.4 109.3-90.4 109.3l-33.3-29.8 23.7 95.8h142.3z"  horiz-adv-x="1024" />
      
      <glyph glyph-name="weixingongzhonghao" unicode="&#59017;" d="M769.365333 618.837333c-40.96 83.968-144.042667 155.648-260.778666 155.648-61.44 0-154.965333-21.162667-224.938667-105.813333-46.762667-56.661333-62.464-122.538667-52.565333-188.757333 6.826667-45.397333 32.085333-105.130667 68.266666-143.018667 13.653333 95.914667 64.170667 171.349333 130.389334 226.645333 119.125333 91.818667 246.784 86.698667 339.626666 55.296zM862.549333 475.136c-73.045333 94.890667-199.68 121.514667-313.685333 79.189333 3.754667-1.024 7.509333-2.048 10.922667-3.413333 168.96-57.685333 260.437333-240.981333 204.117333-409.258667-15.018667-44.714667-38.912-83.968-69.290667-116.394666 36.522667 10.24 73.728 24.576 105.472 49.152 129.024 98.645333 154.282667 281.6 62.464 400.725333zM508.245333 171.690667c-25.6 0-50.517333 3.072-74.410666 8.192-3.072 0.682667-5.802667 1.024-9.216 0.682666-7.168-0.341333-13.312-2.730667-19.456-6.485333l-78.848-50.517333c-2.048-1.365333-4.437333-2.389333-7.168-2.730667-6.826667-0.341333-12.629333 5.12-12.970667 11.946667 0 3.072 1.024 6.144 1.706667 9.216 0.341333 1.706667 8.874667 39.594667 13.994666 63.488 0.682667 2.730667 1.024 5.12 1.024 7.850666-0.341333 8.192-4.778667 15.36-10.922666 19.456-83.285333 56.661333-140.288 145.749333-152.576 237.568-20.821333-32.768-32.085333-59.050667-43.008-96.938666-40.618667-141.994667 48.469333-312.32 193.536-360.106667 166.912-54.954667 326.314667 6.826667 381.269333 148.821333 6.826667 17.408 13.994667 46.421333 15.36 70.997334-58.368-43.008-120.149333-61.44-198.314667-61.44zM508.245333 171.690667c-25.6 0-50.517333 3.072-74.410666 8.192-3.072 0.682667-5.802667 1.024-9.216 0.682666-7.168-0.341333-13.312-2.730667-19.456-6.485333l-78.848-50.517333c-2.048-1.365333-4.437333-2.389333-7.168-2.730667-6.826667-0.341333-12.629333 5.12-12.970667 11.946667 0 3.072 1.024 6.144 1.706667 9.216 0.341333 1.706667 8.874667 39.594667 13.994666 63.488 0.682667 2.730667 1.024 5.12 1.024 7.850666-0.341333 8.192-4.778667 15.36-10.922666 19.456-83.285333 56.661333-140.288 145.749333-152.576 237.568-20.821333-32.768-32.085333-59.050667-43.008-96.938666-40.618667-141.994667 48.469333-312.32 193.536-360.106667 166.912-54.954667 326.314667 6.826667 381.269333 148.821333 6.826667 17.408 13.994667 46.421333 15.36 70.997334-58.368-43.008-120.149333-61.44-198.314667-61.44z"  horiz-adv-x="1024" />
      
      <glyph glyph-name="cainixihuan" unicode="&#59012;" d="M953.216 500.8c-15.2 45.504-53.6 78.112-100.288 85.184l-157.088 23.808-70.784 149.888c-21.088 44.608-64.384 72.288-112.992 72.288s-91.904-27.712-112.992-72.288l-70.912-149.888-156.992-23.808a125.6 125.6 0 0 1-100.288-85.184 128.352 128.352 0 0 1 30.112-131.392l115.584-117.6-27.488-166.912a128.416 128.416 0 0 1 28.608-104.384A124.8 124.8 0 0 1 312.8-64c20.608 0 41.184 5.312 59.616 15.392l139.712 76.704 139.712-76.704a124.128 124.128 0 0 1 59.616-15.392 124.736 124.736 0 0 1 95.104 44.512 128.64 128.64 0 0 1 28.608 104.384l-27.392 166.912 115.616 117.6a128.512 128.512 0 0 1 30.016 131.392z m-83.328-79.104l-124.704-127.008a49.728 49.728 0 0 1-13.312-42.688l29.408-179.296c7.104-43.296-36.384-76.288-73.696-55.904l-154.208 84.608a44.48 44.48 0 0 1-43.008 0l-154.208-84.608c-37.312-20.384-80.8 12.608-73.696 55.904l29.408 179.296a49.472 49.472 0 0 1-13.312 42.688l-124.704 127.008c-30.112 30.688-13.504 84.096 28.096 90.4l172.416 26.208a46.56 46.56 0 0 1 34.816 26.4l77.088 163.104a49.888 49.888 0 0 0 91.104 0l77.088-163.104a46.4 46.4 0 0 1 34.784-26.4l172.384-26.208c41.696-6.304 58.304-59.712 28.192-90.4z m0 0c30.112 30.688 13.504 84.096-28.096 90.4L736 528.192v-107.2c0-164.288-134.4-298.688-298.592-298.688H270.816l-8.096-49.6c-7.104-43.296 36.384-76.288 73.696-55.904l154.208 84.608a44.48 44.48 0 0 0 43.008 0l154.208-84.608c37.312-20.384 80.8 12.608 73.696 55.904l-29.408 179.296a49.472 49.472 0 0 0 13.312 42.688l124.512 127.008zM512 196.99199999999996a130.816 130.816 0 0 0-119.808 78.4 37.376 37.376 0 0 0 68.48 29.92 56.064 56.064 0 0 1 102.912 0.608 37.312 37.312 0 0 0 68.704-29.088A130.24 130.24 0 0 0 512 197.024z"  horiz-adv-x="1024" />
      
      <glyph glyph-name="eicon_map-2-line1" unicode="&#59013;" d="M0.100173 742.406678L358.473461 896l307.186644-153.593322L988.373031 880.707448a25.610017 25.610017 0 0 0 35.693752-23.673406v-831.40733l-358.373288-153.593322-307.186644 153.593322-322.779705-138.26738a25.610017 25.610017 0 0 0-35.693753 23.539846z m716.779966-736.980827l204.779966 87.748533V740.703795l-204.779966-87.748532z m-102.406678 6.677971V653.52289l-204.779966 102.406678v-641.419068l204.779966-102.406678z m-307.186644 102.974305V762.640929L102.506851 674.892396v-647.562802L307.286817 115.078127z"  horiz-adv-x="1024" />
      
      <glyph glyph-name="yuan" unicode="&#59443;" d="M512-64c247.42 0 448 200.58 448 448S759.42 832 512 832 64 631.4200000000001 64 384s200.58-448 448-448z m0 76c-205.45 0-372 166.55-372 372s166.55 372 372 372 372-166.55 372-372-166.55-372-372-372z"  horiz-adv-x="1024" />
      
      <glyph glyph-name="creative-commons-nd-line" unicode="&#59002;" d="M341.333333 512h341.333334v-85.333333H341.333333V512z m0-256v85.333333h341.333334v-85.333333H341.333333z m-256 128C85.333333 619.648 276.352 810.666667 512 810.666667s426.666667-191.018667 426.666667-426.666667-191.018667-426.666667-426.666667-426.666667S85.333333 148.352 85.333333 384z m426.666667 341.333333a341.333333 341.333333 0 1 1 0-682.666666 341.333333 341.333333 0 0 1 0 682.666666z"  horiz-adv-x="1024" />
      
      <glyph glyph-name="creative-commons-by-line" unicode="&#59003;" d="M597.333333 597.333333a85.333333 85.333333 0 1 0-170.666666 0 85.333333 85.333333 0 0 0 170.666666 0z m42.666667-170.666666a42.666667 42.666667 0 0 1-42.666667 42.666666h-170.666666a42.666667 42.666667 0 0 1-42.666667-42.666666v-170.666667h64v-170.666667h128v170.666667H640v170.666667z m-128 384C276.352 810.666667 85.333333 619.648 85.333333 384s191.018667-426.666667 426.666667-426.666667 426.666667 191.018667 426.666667 426.666667S747.648 810.666667 512 810.666667zM170.666667 384a341.333333 341.333333 0 1 0 682.666666 0 341.333333 341.333333 0 0 0-682.666666 0z"  horiz-adv-x="1024" />
      
      <glyph glyph-name="creative-commons-nc-line" unicode="&#59004;" d="M512 810.666667C276.352 810.666667 85.333333 619.648 85.333333 384s191.018667-426.666667 426.666667-426.666667 426.666667 191.018667 426.666667 426.666667S747.648 810.666667 512 810.666667zM302.677333 653.653333A341.333333 341.333333 0 0 0 781.653333 174.72l-91.904 91.904A106.666667 106.666667 0 0 1 597.333333 426.666667h-170.666666a21.333333 21.333333 0 0 0 0 42.709333h234.666666V554.666667H554.666667V640h-85.333334v-85.333333h-42.666666c-7.765333 0-15.317333-0.853333-22.613334-2.389334L302.677333 653.653333zM242.346667 593.322667L334.293333 501.333333A106.666667 106.666667 0 0 1 426.666667 341.333333h170.666666a21.333333 21.333333 0 0 0 0-42.709333H362.666667v-85.333333H469.333333v-85.333334h85.333334v85.333334h42.666666c7.765333 0 15.317333 0.853333 22.613334 2.389333l101.376-101.376A341.333333 341.333333 0 0 0 242.346667 593.28z"  horiz-adv-x="1024" />
      
      <glyph glyph-name="copyright-line" unicode="&#59005;" d="M694.954667 493.738667A213.290667 213.290667 0 0 1 298.666667 384a213.290667 213.290667 0 0 1 396.288-109.738667l-73.173334 43.861334A128 128 0 1 0 512 512c46.634667 0 87.466667-24.917333 109.781333-62.165333l73.173334 43.946666zM938.666667 384c0 235.52-191.146667 426.666667-426.666667 426.666667S85.333333 619.52 85.333333 384s191.146667-426.666667 426.666667-426.666667 426.666667 191.146667 426.666667 426.666667zM170.666667 384c0 188.586667 152.746667 341.333333 341.333333 341.333333s341.333333-152.746667 341.333333-341.333333-152.746667-341.333333-341.333333-341.333333-341.333333 152.746667-341.333333 341.333333z"  horiz-adv-x="1024" />
      
      <glyph glyph-name="font" unicode="&#59006;" d="M572 790.4C562.6 815.4 538.6 832 512 832s-50.6-16.6-60-41.6L179.6 64H128c-35.4 0-64-28.6-64-64s28.6-64 64-64h192c35.4 0 64 28.6 64 64s-28.6 64-64 64h-3.6l36 96h319.2l36-96H704c-35.4 0-64-28.6-64-64s28.6-64 64-64h192c35.4 0 64 28.6 64 64s-28.6 64-64 64h-51.6L572 790.4zM623.6 288H400.4L512 585.8 623.6 288z"  horiz-adv-x="1024" />
      
      <glyph glyph-name="stopwatch" unicode="&#59007;" d="M416 896c-35.4 0-64-28.6-64-64s28.6-64 64-64h32v-68.8C248.6 668.4 96 496 96 288c0-229.8 186.2-416 416-416s416 186.2 416 416c0 83.6-24.6 161.4-67 226.4l48.2 48.2c25 25 25 65.6 0 90.6s-65.6 25-90.6 0L775.4 610c-56.2 46-124.4 77.6-199.4 89.2V768h32c35.4 0 64 28.6 64 64S643.4 896 608 896h-192z m144-384v-256c0-26.6-21.4-48-48-48s-48 21.4-48 48V512c0 26.6 21.4 48 48 48s48-21.4 48-48z"  horiz-adv-x="1024" />
      
      <glyph glyph-name="file-lines" unicode="&#59008;" d="M256 896C185.4 896 128 838.6 128 768v-768c0-70.6 57.4-128 128-128h512c70.6 0 128 57.4 128 128V576H640c-35.4 0-64 28.6-64 64V896H256z m384 0v-256h256L640 896zM352 384h320c17.6 0 32-14.4 32-32s-14.4-32-32-32H352c-17.6 0-32 14.4-32 32s14.4 32 32 32z m0-128h320c17.6 0 32-14.4 32-32s-14.4-32-32-32H352c-17.6 0-32 14.4-32 32s14.4 32 32 32z m0-128h320c17.6 0 32-14.4 32-32s-14.4-32-32-32H352c-17.6 0-32 14.4-32 32s14.4 32 32 32z"  horiz-adv-x="1024" />
      
      <glyph glyph-name="square-poll-vertical" unicode="&#59009;" d="M192 832C121.4 832 64 774.6 64 704v-640c0-70.6 57.4-128 128-128h640c70.6 0 128 57.4 128 128V704c0 70.6-57.4 128-128 128H192z m128-384c35.4 0 64-28.6 64-64v-192c0-35.4-28.6-64-64-64s-64 28.6-64 64v192c0 35.4 28.6 64 64 64z m128 128c0 35.4 28.6 64 64 64s64-28.6 64-64v-384c0-35.4-28.6-64-64-64s-64 28.6-64 64V576z m256-256c35.4 0 64-28.6 64-64v-64c0-35.4-28.6-64-64-64s-64 28.6-64 64v64c0 35.4 28.6 64 64 64z"  horiz-adv-x="1024" />
      
      <glyph glyph-name="universal-access" unicode="&#59010;" d="M0 384a512 512 0 1 0 1024 0 512 512 0 1 0-1024 0z m323 172.2c-24.4 10.4-52.6-0.8-63-25.2s0.8-52.6 25.2-63l23.8-10.2c34.6-14.8 70.4-25.8 107.2-32.6v-100.2c0-8.6-1.4-17.2-4.2-25.2l-57.4-172.2c-8.4-25.2 5.2-52.4 30.4-60.8s52.4 5.2 60.8 30.4l48.8 146.4c2.6 7.6 9.6 12.8 17.6 12.8s15.2-5.2 17.6-12.8l48.8-146.4c8.4-25.2 35.6-38.8 60.8-30.4s38.8 35.6 30.4 60.8l-57.4 172.2c-2.8 8.2-4.2 16.6-4.2 25.2v100c36.8 7 72.6 17.8 107.2 32.6l23.8 10.2c24.4 10.4 35.6 38.6 25.2 63s-38.6 35.6-63 25.2l-24-10c-52.2-22.4-108.4-34-165.4-34s-113 11.6-165.4 34l-23.8 10.2zM512 576a80 80 0 1 1 0 160 80 80 0 1 1 0-160z"  horiz-adv-x="1024" />
      
      <glyph glyph-name="hourglass-start" unicode="&#59011;" d="M191.9 896C156.5 896 127.9 867.4 127.9 832s28.6-64 64-64v-22c0-84.8 33.8-166.2 93.8-226.2l135.6-135.8-135.6-135.8C225.7 188.2 191.9 106.8 191.9 22v-22c-35.4 0-64-28.6-64-64s28.6-64 64-64h640c35.4 0 64 28.6 64 64s-28.6 64-64 64v22c0 84.8-33.8 166.2-93.8 226.2L602.5 384l135.8 135.8c60 60 93.8 141.4 93.8 226.2V768c35.4 0 64 28.6 64 64s-28.6 64-64 64H191.9z m512-874v-22H319.9v22c0 51 20.2 99.8 56.2 135.8l135.8 135.6 135.8-135.8c36-36 56.2-84.8 56.2-135.8z"  horiz-adv-x="1024" />
      
      <glyph glyph-name="tongxunlu07" unicode="&#59001;" d="M921.6 776.533333H203.093333C170.666667 776.533333 143.36 754.346667 136.533333 723.626667h735.573334c37.546667 0 68.266667-30.72 68.266666-68.266667v-559.786667c29.013333 8.533333 49.493333 34.133333 49.493334 64.853334V708.266667c0 37.546667-30.72 68.266667-68.266667 68.266666zM820.906667 675.84H102.4c-37.546667 0-68.266667-30.72-68.266667-68.266667V59.733333c0-37.546667 30.72-68.266667 68.266667-68.266666h718.506667c37.546667 0 68.266667 30.72 68.266666 68.266666V607.573333c0 37.546667-30.72 68.266667-68.266666 68.266667z m-539.306667-158.72c42.666667 0 76.8-34.133333 76.8-76.8s-34.133333-76.8-76.8-76.8-76.8 34.133333-76.8 76.8c-1.706667 40.96 34.133333 76.8 76.8 76.8z m87.04-366.933333H194.56c-47.786667 0-87.04 39.253333-87.04 87.04s39.253333 87.04 87.04 87.04h174.08c47.786667 0 87.04-39.253333 87.04-87.04s-39.253333-87.04-87.04-87.04z m385.706667 20.48h-128c-18.773333 0-34.133333 15.36-34.133334 34.133333s15.36 34.133333 34.133334 34.133333h128c18.773333 0 34.133333-15.36 34.133333-34.133333-1.706667-18.773333-15.36-34.133333-34.133333-34.133333z m0 129.706666H568.32c-18.773333 0-34.133333 15.36-34.133333 34.133334s15.36 34.133333 34.133333 34.133333h184.32c18.773333 0 34.133333-15.36 34.133333-34.133333 0-20.48-13.653333-34.133333-32.426666-34.133334z m0 128h-256c-18.773333 0-34.133333 15.36-34.133334 34.133334s15.36 34.133333 34.133334 34.133333h256c18.773333 0 34.133333-15.36 34.133333-34.133333s-15.36-34.133333-34.133333-34.133334z"  horiz-adv-x="1024" />
      
      <glyph glyph-name="arrow-right" unicode="&#58880;" d="M128 384a64 64 0 0 0 64 64h506.88L530.773333 616.106667a64 64 0 0 0 90.453334 90.453333l277.333333-277.333333a64 64 0 0 0 0-90.453334L621.226667 61.44a64 64 0 0 0-90.453334 90.453333l168.106667 168.106667H192A64 64 0 0 0 128 384z"  horiz-adv-x="1024" />
      
      <glyph glyph-name="arrow-left" unicode="&#58881;" d="M896 384a64 64 0 0 1-64 64H325.12l168.106667 168.106667a64 64 0 0 1-90.453334 90.453333L125.44 429.226667a64 64 0 0 1 0-90.453334l277.333333-277.333333a64 64 0 0 1 90.453334 90.453333L325.12 320h506.88A64 64 0 0 1 896 384z"  horiz-adv-x="1024" />
      
      <glyph glyph-name="dice" unicode="&#58882;" d="M549.8 827.4c-56.2 56.2-147.4 56.2-203.6 0L68.6 549.8c-56.2-56.2-56.2-147.4 0-203.6l277.6-277.6c56.2-56.2 147.4-56.2 203.6 0l277.6 277.6c56.2 56.2 56.2 147.4 0 203.6L549.8 827.4zM400 448a48 48 0 1 0 96 0 48 48 0 1 0-96 0zM192 496a48 48 0 1 0 0-96 48 48 0 1 0 0 96z m256-352a48 48 0 1 0 0 96 48 48 0 1 0 0-96z m256 352a48 48 0 1 0 0-96 48 48 0 1 0 0 96z m-256 160a48 48 0 1 0 0 96 48 48 0 1 0 0-96z m192-656c0-70.6 57.4-128 128-128h384c70.6 0 128 57.4 128 128V384c0 70.6-57.4 128-128 128H923.4c23.2-72 6.2-154-50.8-211L640 68.4V0z m320 240a48 48 0 1 0 0-96 48 48 0 1 0 0 96z"  horiz-adv-x="1280" />
      
      <glyph glyph-name="copy" unicode="&#58883;" d="M544 896h248.2C817.6 896 842 885.8 860 867.8L995.8 732c18-18 28.2-42.4 28.2-67.8V224c0-53-43-96-96-96H544c-53 0-96 43-96 96V800c0 53 43 96 96 96zM96 640h288v-128H128v-512h384v64h128v-96c0-53-43-96-96-96H96c-53 0-96 43-96 96V544c0 53 43 96 96 96z"  horiz-adv-x="1024" />
      
      <glyph glyph-name="cube" unicode="&#58884;" d="M469 884.6c27.8 10 58.2 10 86.2 0l384-137.2c50.8-18.2 84.8-66.4 84.8-120.6v-485.6c0-54-34-102.4-85-120.6l-384-137.2c-27.8-10-58.2-10-86.2 0l-384 137.2C34 38.8 0 87 0 141.2V626.8c0 54 34 102.4 85 120.6l384 137.2zM512 764L164.6 640 512 516l347.4 124L512 764z m64-737.2l320 114.2v376l-320-114.2v-376z"  horiz-adv-x="1024" />
      
      <glyph glyph-name="circle-arrow-right" unicode="&#58885;" d="M0 384a512 512 0 1 1 1024 0 512 512 0 1 1-1024 0z m562-258c-18.8-18.8-49.2-18.8-67.8 0s-18.8 49.2 0 67.8l142 142L272 336c-26.6 0-48 21.4-48 48s21.4 48 48 48h364.2l-142 142c-18.8 18.8-18.8 49.2 0 67.8s49.2 18.8 67.8 0L786 418c18.8-18.8 18.8-49.2 0-67.8L562 126z"  horiz-adv-x="1024" />
      
      <glyph glyph-name="clock" unicode="&#58886;" d="M512 896a512 512 0 1 0 0-1024 512 512 0 1 0 0 1024z m-48-240v-272c0-16 8-31 21.4-40l192-128c22-14.8 51.8-8.8 66.6 13.4s8.8 51.8-13.4 66.6L560 409.6V656c0 26.6-21.4 48-48 48s-48-21.4-48-48z"  horiz-adv-x="1024" />
      
      <glyph glyph-name="book" unicode="&#58887;" d="M256 896C150 896 64 810 64 704v-640c0-106 86-192 192-192h640c35.4 0 64 28.6 64 64s-28.6 64-64 64v128c35.4 0 64 28.6 64 64V832c0 35.4-28.6 64-64 64H256z m0-768h512v-128H256c-35.4 0-64 28.6-64 64s28.6 64 64 64z m64 480c0 17.6 14.4 32 32 32h384c17.6 0 32-14.4 32-32s-14.4-32-32-32H352c-17.6 0-32 14.4-32 32z m32-96h384c17.6 0 32-14.4 32-32s-14.4-32-32-32H352c-17.6 0-32 14.4-32 32s14.4 32 32 32z"  horiz-adv-x="1024" />
      
      <glyph glyph-name="calendar-alt" unicode="&#58888;" d="M512 85.333333a42.666667 42.666667 0 1 1-42.666667 42.666667 42.666667 42.666667 0 0 1 42.666667-42.666667z m213.333333 0a42.666667 42.666667 0 1 1-42.666666 42.666667 42.666667 42.666667 0 0 1 42.666666-42.666667z m0 170.666667a42.666667 42.666667 0 1 1-42.666666 42.666667 42.666667 42.666667 0 0 1 42.666666-42.666667z m-213.333333 0a42.666667 42.666667 0 1 1-42.666667 42.666667 42.666667 42.666667 0 0 1 42.666667-42.666667z m298.666667 512h-42.666667V810.666667a42.666667 42.666667 0 0 1-85.333333 0v-42.666667H341.333333V810.666667a42.666667 42.666667 0 0 1-85.333333 0v-42.666667H213.333333a128 128 0 0 1-128-128v-597.333333a128 128 0 0 1 128-128h597.333334a128 128 0 0 1 128 128V640a128 128 0 0 1-128 128z m42.666666-725.333333a42.666667 42.666667 0 0 0-42.666666-42.666667H213.333333a42.666667 42.666667 0 0 0-42.666666 42.666667v384h682.666666z m0 469.333333H170.666667V640a42.666667 42.666667 0 0 0 42.666666 42.666667h42.666667v-42.666667a42.666667 42.666667 0 0 1 85.333333 0V682.666667h341.333334v-42.666667a42.666667 42.666667 0 0 1 85.333333 0V682.666667h42.666667a42.666667 42.666667 0 0 0 42.666666-42.666667zM298.666667 256a42.666667 42.666667 0 1 1-42.666667 42.666667 42.666667 42.666667 0 0 1 42.666667-42.666667z m0-170.666667a42.666667 42.666667 0 1 1-42.666667 42.666667 42.666667 42.666667 0 0 1 42.666667-42.666667z"  horiz-adv-x="1024" />
      
      <glyph glyph-name="eye-outline" unicode="&#58889;" d="M512 512a128 128 0 0 0 128-128 128 128 0 0 0-128-128 128 128 0 0 0-128 128 128 128 0 0 0 128 128m0 192c213.333333 0 395.52-132.693333 469.333333-320-73.813333-187.306667-256-320-469.333333-320S116.48 196.693333 42.666667 384c73.813333 187.306667 256 320 469.333333 320M135.68 384a419.029333 419.029333 0 0 1 752.64 0 419.029333 419.029333 0 0 1-752.64 0z"  horiz-adv-x="1024" />
      
      <glyph glyph-name="circle-half-stroke" unicode="&#58890;" d="M896 384c0 212-172 384-384 384v-768c212 0 384 172 384 384zM0 384a512 512 0 1 0 1024 0 512 512 0 1 0-1024 0z"  horiz-adv-x="1024" />
      
      <glyph glyph-name="arrow-up" unicode="&#58891;" d="M512 0a64 64 0 0 1 64 64V570.88l168.106667-168.106667a64 64 0 0 1 90.453333 90.453334L557.226667 770.56a64 64 0 0 1-90.453334 0L189.44 493.226667a64 64 0 1 1 90.453333-90.453334l168.106667 168.106667v-506.88c0-35.328 28.672-64 64-64z"  horiz-adv-x="1024" />
      
      <glyph glyph-name="file-word" unicode="&#58892;" d="M224 0V768c0 17.6 14.4 32 32 32h320v-160c0-35.4 28.6-64 64-64h160v-576c0-17.6-14.4-32-32-32H256c-17.6 0-32 14.4-32 32zM256 896C185.4 896 128 838.6 128 768v-768c0-70.6 57.4-128 128-128h512c70.6 0 128 57.4 128 128V587c0 34-13.4 66.6-37.4 90.6l-181.2 181C653.4 882.6 621 896 587 896H256z m110-482.2c-7.6 25.4-34.4 39.8-59.8 32.2S266.4 411.6 274 386.2l96-320c6-20.4 24.8-34.2 46-34.2s39.8 14 46 34.2l50 166.8 50-166.8c6-20.4 24.8-34.2 46-34.2s39.8 14 46 34.2l96 320c7.6 25.4-6.8 52.2-32.2 59.8s-52.2-6.8-59.8-32.2l-50-166.8-50 166.8c-6 20.4-24.8 34.2-46 34.2s-39.8-14-46-34.2l-50-166.8-50 166.8z"  horiz-adv-x="1024" />
      
      <glyph glyph-name="fire" unicode="&#58893;" d="M512-128c212.096 0 384 128 384 352 0 96-32 256-160 384 16-96-80-128-80-128C704 640 576 864 384 896c22.848-128 32-256-128-384-80-64-128-174.656-128-288C128 0 299.904-128 512-128z m0 64c-106.048 0-192 64-192 176 0 48 16 128 80 192C392 256 448 224 448 224c-24 80 32 208 128 224-11.456-64-16-128 64-192 40-32 64-87.296 64-144C704 0 618.048-64 512-64z"  horiz-adv-x="1024" />
      
      <glyph glyph-name="dove" unicode="&#58894;" d="M321.6 703c28-34 62-61.8 99-84.4 51.8-31.6 107.4-51.8 155.4-63.2v63c-44.4 60.6-76 134.6-78.8 221.6-0.8 22.6-15 43-36.8 48.8-15.2 4-31.6 0.4-42-11.6-26.6-30.8-65.4-89.2-96.8-174.4zM640 608v-128c-121.6 10.2-370 87.6-438.6 314.4C194.8 816 175.8 832 153.2 832c-15.8 0-30.6-7.8-37.6-22C93.6 764.2 64 671.8 64 544c0-233.8 160.2-361 236.8-405.6L23.6 62.8C13.4 60 5.2 52.4 1.8 42.4s-1.6-21.2 4.6-29.6C43.4-36.4 154.6-128 320-128c7.2 0 14.4 2.4 20 7l151.2 121H640c176.8 0 320 143.2 320 320V640l59.8 89.8c2.6 4 4.2 8.8 4.2 13.6 0 13.6-11 24.6-24.6 24.6H800c-88.4 0-160-71.6-160-160z m160 32a32 32 0 1 0 0-64 32 32 0 1 0 0 64z"  horiz-adv-x="1024" />
      
      <glyph glyph-name="gear" unicode="&#58895;" d="M991.8 562.8c6.4-17.4 1-36.8-12.8-49.2l-86.6-78.8c2.2-16.6 3.4-33.6 3.4-50.8s-1.2-34.2-3.4-50.8l86.6-78.8c13.8-12.4 19.2-31.8 12.8-49.2-8.8-23.8-19.4-46.6-31.6-68.6l-9.4-16.2c-13.2-22-28-42.8-44.2-62.4-11.8-14.4-31.4-19.2-49-13.6l-111.4 35.4c-26.8-20.6-56.4-37.8-88-50.8l-25-114.2c-4-18.2-18-32.6-36.4-35.6-27.6-4.6-56-7-85-7s-57.4 2.4-85 7c-18.4 3-32.4 17.4-36.4 35.6l-25 114.2c-31.6 13-61.2 30.2-88 50.8l-111.2-35.6c-17.6-5.6-37.2-0.6-49 13.6-16.2 19.6-31 40.4-44.2 62.4l-9.4 16.2c-12.2 22-22.8 44.8-31.6 68.6-6.4 17.4-1 36.8 12.8 49.2l86.6 78.8c-2.2 16.8-3.4 33.8-3.4 51s1.2 34.2 3.4 50.8l-86.6 78.8c-13.8 12.4-19.2 31.8-12.8 49.2 8.8 23.8 19.4 46.6 31.6 68.6l9.4 16.2c13.2 22 28 42.8 44.2 62.4 11.8 14.4 31.4 19.2 49 13.6l111.4-35.4c26.8 20.6 56.4 37.8 88 50.8l25 114.2c4 18.2 18 32.6 36.4 35.6C454.6 893.6 483 896 512 896s57.4-2.4 85-7c18.4-3 32.4-17.4 36.4-35.6l25-114.2c31.6-13 61.2-30.2 88-50.8l111.4 35.4c17.6 5.6 37.2 0.6 49-13.6 16.2-19.6 31-40.4 44.2-62.4l9.4-16.2c12.2-22 22.8-44.8 31.6-68.6zM512 224a160 160 0 1 1 0 320 160 160 0 1 1 0-320z"  horiz-adv-x="1024" />
      
      <glyph glyph-name="inbox" unicode="&#58896;" d="M242 832c-58.8 0-110-40-124.2-97l-114-455.8C1.2 269 0 258.6 0 248.2V64c0-70.6 57.4-128 128-128h768c70.6 0 128 57.4 128 128v184.2c0 10.4-1.2 20.8-3.8 31l-114 455.8C892 792 840.8 832 782 832H242z m0-128h540l96-384h-102.4c-24.2 0-46.4-13.6-57.2-35.4l-28.6-57.2c-10.8-21.6-33-35.4-57.2-35.4H391.6c-24.2 0-46.4 13.6-57.2 35.4l-28.6 57.2c-10.8 21.6-33 35.4-57.2 35.4H146l96 384z"  horiz-adv-x="1024" />
      
      <glyph glyph-name="history" unicode="&#58897;" d="M307.587194 853.424665A511.992 511.992 0 1 0 39.175388 187.51507a47.99925 47.99925 0 1 0 88.638615 36.799425A415.9935 415.9935 0 1 1 161.477477 607.9885H272.00375a47.99925 47.99925 0 0 0 0-95.9985H0.008V783.98575a47.99925 47.99925 0 0 0 95.9985 0v-101.502414A511.992 511.992 0 0 0 307.587194 853.360666zM512 703.987a47.99925 47.99925 0 0 0 47.99925-47.99925v-252.15606l130.173966-130.173966a47.99925 47.99925 0 1 0-67.83894-67.83894L478.08053 350.07253l-14.07978 14.07978V655.98775A47.99925 47.99925 0 0 0 512 703.987z"  horiz-adv-x="1024" />
      
      <glyph glyph-name="message" unicode="&#58899;" d="M128 896C57.4 896 0 838.6 0 768v-576c0-70.6 57.4-128 128-128h192v-160c0-12.2 6.8-23.2 17.6-28.6s23.8-4.2 33.6 3L618.6 64H896c70.6 0 128 57.4 128 128V768c0 70.6-57.4 128-128 128H128z"  horiz-adv-x="1024" />
      
      <glyph glyph-name="moon" unicode="&#58900;" d="M574.85555 832C327.85555 832 127.85555 631.4 127.85555 384s200-448 447-448c121.2 0 231 48.4 311.6 126.8 10 9.8 12.6 25 6.2 37.4s-20.2 19.4-34 17c-19.6-3.4-39.6-5.2-60.2-5.2-193.8 0-351 157.6-351 352 0 131.6 72 246.2 178.6 306.6 12.2 7 18.4 21 15.4 34.6s-14.6 23.8-28.6 25c-12.6 1-25.2 1.6-38 1.6z"  horiz-adv-x="1024" />
      
      <glyph glyph-name="shapes" unicode="&#58901;" d="M630.8 865C619.4 884.2 598.4 896 576 896s-43.4-11.8-54.8-31l-192-320c-11.8-19.8-12.2-44.4-0.8-64.4s32.6-32.4 55.6-32.4h384c23 0 44.4 12.4 55.6 32.4s11 44.6-0.8 64.4l-192 320zM576 272v-288c0-44.2 35.8-80 80-80h288c44.2 0 80 35.8 80 80V272c0 44.2-35.8 80-80 80H656c-44.2 0-80-35.8-80-80zM256-128a256 256 0 1 1 0 512 256 256 0 1 1 0-512z"  horiz-adv-x="1024" />
      
      <glyph glyph-name="shuffle" unicode="&#58902;" d="M807.6 827.2c24 10 51.4 4.4 69.8-13.8l128-128c12-12 18.8-28.2 18.8-45.2s-6.8-33.2-18.8-45.2l-128-128c-18.4-18.4-45.8-23.8-69.8-13.8S768 486.4 768 512.4V576h-64c-20.2 0-39.2-9.4-51.2-25.6L568 437.4 488 544l62.4 83.2C586.6 675.6 643.6 704 704 704h64V768c0 25.8 15.6 49.2 39.6 59.2zM328 330.6l80-106.6-62.4-83.2C309.4 92.4 252.4 64 192 64H64c-35.4 0-64 28.6-64 64s28.6 64 64 64h128c20.2 0 39.2 9.4 51.2 25.6l84.8 113z m549.2-376c-18.4-18.4-45.8-23.8-69.8-13.8S767.8-26 767.8 0v64H704c-60.4 0-117.4 28.4-153.6 76.8L243.2 550.4c-12 16.2-31 25.6-51.2 25.6H64c-35.4 0-64 28.6-64 64s28.6 64 64 64h128c60.4 0 117.4-28.4 153.6-76.8l307.2-409.6c12-16.2 31-25.6 51.2-25.6h64v64c0 25.8 15.6 49.2 39.6 59.2s51.4 4.4 69.8-13.8l128-128c12-12 18.8-28.2 18.8-45.2s-6.8-33.2-18.8-45.2l-128-128z"  horiz-adv-x="1024" />
      
      <glyph glyph-name="language" unicode="&#58903;" d="M0 640c0 70.6 57.4 128 128 128h1024c70.6 0 128-57.4 128-128v-512c0-70.6-57.4-128-128-128H128c-70.6 0-128 57.4-128 128V640z m640 0v-512h512V640H640z m-283.4-95.8c-6.4 14.4-20.8 23.8-36.6 23.8s-30.2-9.4-36.6-23.8l-128-288c-9-20.2 0.2-43.8 20.4-52.8s43.8 0.2 52.8 20.4l17.8 40.2h147.2l17.8-40.2c9-20.2 32.6-29.2 52.8-20.4s29.2 32.6 20.4 52.8l-128 288zM320 429.6l38-85.6h-76l38 85.6zM896 568c22 0 40-18 40-40v-8h120c22 0 40-18 40-40s-18-40-40-40h-4l-3.2-9c-17.8-48.8-44.8-93.2-79.2-130.8 1.8-1.2 3.6-2.2 5.4-3.2l37.8-22.6c19-11.4 25-36 13.8-54.8s-36-25-54.8-13.8L934 228.4c-9 5.4-17.6 11-26.2 17-21.2-15-43.8-28-68-38.8l-7.2-3.2c-20.2-9-43.8 0.2-52.8 20.4s0.2 43.8 20.4 52.8l7.2 3.2c12.8 5.8 25.2 12.2 37 19.6L820 323.8c-15.6 15.6-15.6 41 0 56.6s41 15.6 56.6 0l29.2-29.2 1-1c24.8 26.2 45 56.6 59.6 90H752c-22 0-40 18-40 40s18 40 40 40h104v8c0 22 18 40 40 40z"  horiz-adv-x="1280" />
      
      <glyph glyph-name="tags" unicode="&#58904;" d="M690 817.8l255.6-258.6c104.8-106 104.8-276.4 0-382.4l-224-226.6c-18.6-18.8-49-19-67.8-0.4s-19 49-0.4 67.8l223.8 226.6c67.8 68.6 67.8 178.8 0 247.4L621.8 750.2c-18.6 18.8-18.4 49.2 0.4 67.8s49.2 18.4 67.8-0.4zM0 437V736c0 53 43 96 96 96h299c34 0 66.6-13.4 90.6-37.4l336-336c50-50 50-131 0-181L554.6 10.6c-50-50-131-50-181 0l-336 336C13.4 370.6 0 403 0 437zM288 608a64 64 0 1 1-128 0 64 64 0 1 1 128 0z"  horiz-adv-x="1024" />
      
      <glyph glyph-name="train" unicode="&#58905;" d="M256 896C150 896 64 810 64 704v-512c0-96 70.4-175.4 162.2-189.8l-92-92c-14-14-4-38.2 15.8-38.2h79.4c17 0 33.2 6.8 45.2 18.8L384 0h256l109.2-109.2c12-12 28.2-18.8 45.2-18.8H874c20 0 30 24.2 15.8 38.2l-92 92c92 14.2 162.2 93.8 162.2 189.8V704c0 106-86 192-192 192H256zM192 704c0 35.4 28.6 64 64 64h512c35.4 0 64-28.6 64-64v-192c0-35.4-28.6-64-64-64H256c-35.4 0-64 28.6-64 64V704z m320-384a96 96 0 1 0 0-192 96 96 0 1 0 0 192z"  horiz-adv-x="1024" />
      
      <glyph glyph-name="warning" unicode="&#58906;" d="M512 832a448 448 0 1 0 0-896 448 448 0 0 0 0 896z m0-192a58.432 58.432 0 0 1-58.24-63.744l23.36-256.384a35.072 35.072 0 0 1 69.76 0l23.296 256.384A58.432 58.432 0 0 1 512 640z m0-512a51.2 51.2 0 1 1 0 102.4 51.2 51.2 0 0 1 0-102.4z"  horiz-adv-x="1024" />
      
      <glyph glyph-name="circle-arrow-up-right-1" unicode="&#58907;" d="M725.44 753.6c204.16-117.76 273.92-378.88 156.16-582.72-117.76-204.16-378.88-273.92-582.72-156.16-127.68 73.6-208.32 208.32-213.12 355.52V384v13.76c7.68 235.52 204.8 420.16 440.32 412.48 70.08-2.24 138.56-21.76 199.36-56.96zM640 554.88h-261.12c-21.44-2.88-37.76-21.12-37.76-42.56v-5.12c2.88-21.44 21.12-37.76 42.56-37.76h152.96l-183.04-183.04-3.52-4.16c-14.4-18.56-10.88-45.44 7.68-59.84 16.96-13.12 40.96-11.52 56.32 3.52l183.04 183.04v-158.08c3.2-23.36 24.32-40 47.68-37.44 21.44 2.56 37.76 20.8 37.76 42.24v261.44l-1.6 6.4-1.6 4.48-2.24 4.8-2.88 4.8c-1.28 1.6-2.56 3.2-4.16 4.8l-3.84 3.52-4.16 2.88-4.16 2.24-4.8 1.92-4.8 1.28-5.44 0.64h-3.2z"  horiz-adv-x="1024" />
      
      <glyph glyph-name="fish" unicode="&#58908;" d="M326.4 22.399999999999977C156.8 22.399999999999977 9.6 156.79999999999995 0 329.6 0 508.8 144 656 320 659.2c188.8 0 377.6-73.6 473.6-182.4 22.4 22.4 48 38.4 76.8 51.2 12.8 6.4 28.8 9.6 41.6 9.6 60.8 0 108.8-48 108.8-108.8v-192c0-16-3.2-28.8-9.6-41.6-12.8-25.6-32-48-57.6-57.6-25.6-9.6-57.6-9.6-83.2 0-28.8 12.8-54.4 28.8-73.6 48-48-60.8-112-105.6-185.6-131.2-19.2-6.4-38.4 3.2-44.8 22.4-6.4 19.2 3.2 38.4 22.4 44.8 73.6 25.6 134.4 76.8 172.8 140.8 6.4 9.6 16 16 28.8 16s22.4-6.4 28.8-16c19.2-25.6 44.8-48 76.8-60.8 19.2-9.6 41.6 0 51.2 19.2 3.2 3.2 3.2 9.6 3.2 16v192c0 22.4-16 38.4-38.4 38.4-6.4 0-9.6 0-16-3.2-32-12.8-57.6-35.2-76.8-60.8-6.4-9.6-19.2-16-28.8-16-12.8 0-22.4 6.4-28.8 16-67.2 105.6-259.2 185.6-441.6 185.6-137.6-3.2-249.6-118.4-249.6-256 9.6-137.6 128-243.2 268.8-240h80c19.2 0 35.2-16 35.2-35.2s-16-35.2-35.2-35.2h-92.8zM291.2 336c-38.4 0-70.4 32-70.4 70.4 0 38.4 32 70.4 70.4 70.4 38.4 0 70.4-32 70.4-70.4 3.2-38.4-28.8-70.4-70.4-70.4z m0 73.6s0-3.2 0 0zM588.8-41.60000000000002c-137.6 0-256 96-284.8 233.6-3.2 19.2 9.6 38.4 28.8 41.6 19.2 3.2 38.4-9.6 41.6-28.8 22.4-102.4 108.8-176 211.2-176l-60.8 198.4c-6.4 19.2 3.2 38.4 22.4 44.8 19.2 6.4 38.4-3.2 44.8-22.4l73.6-240c3.2-9.6 3.2-19.2-3.2-28.8-6.4-9.6-12.8-16-25.6-16-16-6.4-32-6.4-48-6.4z m128 508.8c-12.8 0-28.8 9.6-32 22.4-28.8 76.8-32 163.2-12.8 243.2-262.4 19.2-364.8-76.8-406.4-137.6-9.6-19.2-32-22.4-48-12.8-16 9.6-22.4 32-9.6 48C259.2 710.4 393.6 838.4 723.2 800c9.6 0 19.2-6.4 25.6-16 6.4-9.6 6.4-19.2 3.2-32-28.8-76.8-28.8-160 0-236.8 6.4-19.2-3.2-38.4-22.4-44.8-3.2-3.2-6.4-3.2-12.8-3.2z"  horiz-adv-x="1024" />
      
      <glyph glyph-name="envelope" unicode="&#58909;" d="M96 768C43 768 0 725 0 672c0-30.2 14.2-58.6 38.4-76.8l435.2-326.4c22.8-17 54-17 76.8 0l435.2 326.4c24.2 18.2 38.4 46.6 38.4 76.8 0 53-43 96-96 96H96zM0 544v-416c0-70.6 57.4-128 128-128h768c70.6 0 128 57.4 128 128V544L588.8 217.6a127.8 127.8 0 0 0-153.6 0L0 544z"  horiz-adv-x="1024" />
      
      <glyph glyph-name="music" unicode="&#58910;" d="M998.094732 883.29334c16.198292-11.998735 25.797279-31.19671 25.797279-51.394579v-671.929133c0-88.390678-85.990931-159.983127-191.979752-159.983127s-191.979752 71.592449-191.979752 159.983127 85.990931 159.983127 191.979752 159.983127c22.397638 0 43.99536-3.199663 63.993251-9.19903V601.923016l-511.946006-153.583802V31.983127c0-88.390678-85.990931-159.983127-191.979752-159.983127S0-56.407551 0 31.983127s85.990931 159.983127 191.979752 159.983127c22.397638 0 43.99536-3.199663 63.993251-9.19903V639.919009c0 28.197026 18.598038 53.19439 45.595191 61.393524l639.932507 191.979753c19.397954 5.799388 40.39574 2.199768 56.594031-9.998946z"  horiz-adv-x="1024" />
      
      <glyph glyph-name="fan" unicode="&#58911;" d="M517.2 896c-3.4 0-6.8-0.2-10.2-1C336 862 231.2 691.4 261 517.4c5.8-34 16.8-65.8 31.8-94.8L64 448h-5.2C26.4 448 0 421.6 0 389.2c0-3.4 0.2-6.8 1-10.2C34 208 204.6 103.2 378.6 133c34 5.8 65.8 16.8 94.8 31.8L448-64v-5.2c0-32.4 26.4-58.8 58.8-58.8 3.4 0 6.8 0.2 10.2 1 171 33 275.8 203.6 246 377.6-5.8 34-16.8 65.8-31.8 94.8L960 320h5.2c32.4 0 58.8 26.4 58.8 58.8 0 3.4-0.2 6.8-1 10.2-33 171-203.6 275.8-377.6 246-34-5.8-65.8-16.8-94.8-31.8L576 832v5.2C576 869.6 549.6 896 517.2 896zM512 448a64 64 0 1 0 0-128 64 64 0 1 0 0 128z"  horiz-adv-x="1024" />
      
      <glyph glyph-name="heartbeat-bold" unicode="&#58912;" d="M287.04 336H126.8a48 48 0 1 0 0 96h134.52l49.8 74.64a48 48 0 0 0 80 0l88-132 24 36a48 48 0 0 0 40 21.36h96a48 48 0 1 0 0-96h-70.4l-49.84-74.64a48 48 0 0 0-80 0l-88 132-24-36a48 48 0 0 0-39.84-21.36zM711.64 784c-80.48 0-152-31.72-200.28-86.24C462.96 752.28 391.56 784 311.04 784a264 264 0 0 1-262.76-234.72A48 48 0 0 1 144 538.72 168 168 0 0 0 311.04 688c71.32 0 131-37.6 155.8-98.16a48 48 0 0 1 89 0C580.64 650.4 640.32 688 711.64 688A168.32 168.32 0 0 0 880 520c0-117.68-103.44-231.08-190.24-305.44a1316 1316 0 0 0-178.32-127.24c-43.48 25.8-141.48 88-226.04 170.92a48 48 0 1 1-67.36-68.48c121.56-119.24 264.6-196.8 270.64-200a48.24 48.24 0 0 1 45.56 0C552-0.56 976 230.64 976 520a264.48 264.48 0 0 1-264.36 264z"  horiz-adv-x="1024" />
      
      <glyph glyph-name="link" unicode="&#58913;" d="M1159.6 360.6c113 113 113 296 0 409-100 100-257.6 113-372.6 30.8l-3.2-2.2c-28.8-20.6-35.4-60.6-14.8-89.2s60.6-35.4 89.2-14.8l3.2 2.2c64.2 45.8 152 38.6 207.6-17.2 63-63 63-165 0-228L844.6 226.4c-63-63-165-63-228 0-55.8 55.8-63 143.6-17.2 207.6l2.2 3.2c20.6 28.8 13.8 68.8-14.8 89.2s-68.8 13.8-89.2-14.8l-2.2-3.2C413 393.6 426 236 526 136c113-113 296-113 409 0l224.6 224.6zM120.4 407.4c-113-113-113-296 0-409 100-100 257.6-113 372.6-30.8l3.2 2.2c28.8 20.6 35.4 60.6 14.8 89.2s-60.6 35.4-89.2 14.8l-3.2-2.2c-64.2-45.8-152-38.6-207.6 17.2C148 152 148 254 211 317l224.4 224.6c63 63 165 63 228 0 55.8-55.8 63-143.6 17.2-207.8l-2.2-3.2c-20.6-28.8-13.8-68.8 14.8-89.2s68.8-13.8 89.2 14.8l2.2 3.2C867 374.4 854 532 754 632c-113 113-296 113-409 0L120.4 407.4z"  horiz-adv-x="1280" />
      
      <glyph glyph-name="chevron-left" unicode="&#58914;" d="M210.8 429.2c-25-25-25-65.6 0-90.6l384-384c25-25 65.6-25 90.6 0s25 65.6 0 90.6L346.6 384 685.2 722.8c25 25 25 65.6 0 90.6s-65.6 25-90.6 0l-384-384z"  horiz-adv-x="1024" />
      
      <glyph glyph-name="rocket" unicode="&#58915;" d="M313.288119 126.295416L251.495779 188.087756c-16.997893 16.997893-22.997149 41.594844-15.398091 64.392018 5.999256 17.797794 13.998265 40.994918 23.597075 67.591621H48.12099c-17.197868 0-33.195885 9.19886-41.794818 24.197s-8.398959 33.39586 0.39995 48.194026l104.986985 176.978061c25.996777 43.794571 72.990952 70.591249 123.784655 70.591249H400.07736c4.799405 7.999008 9.59881 15.398091 14.398215 22.597199C578.255272 904.198984 822.225029 912.197992 967.806982 885.401314c23.197124-4.199479 41.194893-22.397224 45.594348-45.594348 26.796678-145.781928 18.597695-389.551709-222.772384-553.331406-6.999132-4.799405-14.59819-9.59881-22.597199-14.398216v-164.579597c0-50.793703-26.796678-97.987853-70.591249-123.784655l-176.978061-104.986986c-14.798166-8.798909-33.195885-8.998884-48.194026-0.39995S448.071411-97.276869 448.071411-79.879025V134.4944c-28.196505-9.798785-52.793455-17.797794-71.39115-23.79705-22.397224-7.199108-46.794199-0.999876-63.592117 15.598066zM768.031747 560.041647a79.990084 79.990084 0 1 1 0 159.980168 79.990084 79.990084 0 1 1 0-159.980168z"  horiz-adv-x="1024" />
      
      <glyph glyph-name="lightbulb" unicode="&#58916;" d="M672 128c19.2 63.8 59 118.2 98.4 172.4 10.4 14.2 20.8 28.4 30.8 42.8 39.6 57 62.8 126 62.8 200.6C864 738.4 706.4 896 512 896S160 738.4 160 544c0-74.6 23.2-143.8 62.8-200.6 10-14.4 20.4-28.6 30.8-42.8 39.6-54.2 79.4-108.8 98.4-172.4h320z m-160-256c88.4 0 160 71.6 160 160v32H352v-32c0-88.4 71.6-160 160-160z m-160 672c0-17.6-14.4-32-32-32s-32 14.4-32 32c0 123.8 100.2 224 224 224 17.6 0 32-14.4 32-32s-14.4-32-32-32c-88.4 0-160-71.6-160-160z"  horiz-adv-x="1024" />
      
      <glyph glyph-name="shoe-prints" unicode="&#58917;" d="M832 896c-127.4 0-320-64-320-64v-256c96 0 152-32 208-64s112-64 208-64c112.8 0 352 32 352 192S1024 896 832 896zM256 704c0-70.6 57.4-128 128-128h64V832h-64c-70.6 0-128-57.4-128-128z m320-832c192 0 448 96 448 256s-239.2 192-352 192c-96 0-152-32-208-64s-112-64-208-64v-256s192.6-64 320-64zM0 64c0-70.6 57.4-128 128-128h64V192H128c-70.6 0-128-57.4-128-128z"  horiz-adv-x="1280" />
      
      <glyph glyph-name="images" unicode="&#58918;" d="M320 832c-70.6 0-128-57.4-128-128v-448c0-70.6 57.4-128 128-128h704c70.6 0 128 57.4 128 128V704c0 70.6-57.4 128-128 128H320z m472-213.4l192-288c9.8-14.8 10.8-33.6 2.4-49.2S961.8 256 944 256H400c-18.4 0-35.2 10.6-43.2 27.2s-5.8 36.4 5.8 50.8l128 160c9.2 11.4 22.8 18 37.4 18s28.4-6.6 37.4-18l34.6-43.2 112 168c9 13.2 24 21.2 40 21.2s31-8 40-21.4zM384 640a64 64 0 1 0 128 0 64 64 0 1 0-128 0z m-288 16c0 26.6-21.4 48-48 48S0 682.6 0 656v-448c0-150.2 121.8-272 272-272h640c26.6 0 48 21.4 48 48s-21.4 48-48 48H272c-97.2 0-176 78.8-176 176V656z"  horiz-adv-x="1152" />
      
      <glyph glyph-name="box-archive" unicode="&#58919;" d="M64 832h896c35.4 0 64-28.6 64-64v-64c0-35.4-28.6-64-64-64H64c-35.4 0-64 28.6-64 64V768c0 35.4 28.6 64 64 64z m0-256h896v-512c0-70.6-57.4-128-128-128H192c-70.6 0-128 57.4-128 128V576z m256-160c0-17.6 14.4-32 32-32h320c17.6 0 32 14.4 32 32s-14.4 32-32 32H352c-17.6 0-32-14.4-32-32z"  horiz-adv-x="1024" />
      
      <glyph glyph-name="artstation" unicode="&#58920;" d="M4 141.2l86-148.6A102.7 102.7 0 0 1 181.8-64h570.8l-118.4 205.2zM1003.6 196L671.2 777.4A102.76 102.76 0 0 1 580.4 832h-176.8l514.6-895.2 81.4 141c3.8 6.4 42 59.4 4 118.2zM550 287l-231 400L88 287z"  horiz-adv-x="1024" />
      
      <glyph glyph-name="paper-plane" unicode="&#58921;" d="M996.022225 884.794683c20.195814-13.997099 30.793617-38.192083 26.994405-62.387068l-127.973473-831.827575c-2.999378-19.39598-14.796933-36.392456-31.993368-45.990467s-37.792166-10.797762-55.988395-3.199337L567.910966 40.769637l-136.971607-148.169287c-17.796311-19.39598-45.790508-25.794653-70.385411-16.196643S319.962362-90.203215 319.962362-63.808686v167.165349c0 7.998342 2.999378 15.596767 8.39826 21.395565l335.130532 365.724191c11.597596 12.597389 11.197679 31.993368-0.799834 43.990881s-31.393493 12.797347-43.990881 1.39971L211.984745 174.541908l-176.563401 88.381679C14.225737 273.521391 0.628556 294.716997 0.02868 318.312106s11.797555 45.59055 32.193327 57.388104l895.814311 511.893892c21.395565 12.197472 47.790094 10.99772 67.985907-2.799419z"  horiz-adv-x="1024" />
      
      <glyph glyph-name="house-chimney" unicode="&#58922;" d="M1087.6 320.8c34 0 64 28 64 64.2 2 18-6 34-22 48L1024 526V768c0 35.4-28.6 64-64 64h-64c-35.4 0-64-28.6-64-64v-73.4L619 882c-12 10-28 14-42 14s-30-2-44-16L20 433c-14-14-20-30-20-48 0-36 28-64.2 64-64.2h64v-139.4c-0.2-1.8-0.2-3.6-0.2-5.6V-48c0-44.2 35.8-80 80-80h32c2.4 0 4.8 0.2 7.2 0.4 3-0.2 6-0.4 9-0.4h112c44.2 0 80 35.8 80 80v176c0 35.4 28.6 64 64 64h128c35.4 0 64-28.6 64-64v-176c0-44.2 35.8-80 80-80h113c2.8 0 5.6 0 8.4 0.2 2.2-0.2 4.4-0.2 6.6-0.2h32c44.2 0 80 35.8 80 80v32.4c0.6 5.2 1 10.6 1 16.2l-1.4 320.4h64z"  horiz-adv-x="1152" />
      
      <glyph glyph-name="bars" unicode="&#58924;" d="M64 704c0 35.4 28.6 64 64 64h768c35.4 0 64-28.6 64-64s-28.6-64-64-64H128c-35.4 0-64 28.6-64 64z m0-320c0 35.4 28.6 64 64 64h768c35.4 0 64-28.6 64-64s-28.6-64-64-64H128c-35.4 0-64 28.6-64 64z m896-320c0-35.4-28.6-64-64-64H128c-35.4 0-64 28.6-64 64s28.6 64 64 64h768c35.4 0 64-28.6 64-64z"  horiz-adv-x="1024" />
      
      <glyph glyph-name="arrows-left-right" unicode="&#58925;" d="M813.35 146.8l192 192c25 25 25 65.6 0 90.6l-192 192c-25 25-65.6 25-90.6 0s-25-65.6 0-90.6l82.8-82.8H218.55l82.8 82.8c25 25 25 65.6 0 90.6s-65.6 25-90.6 0l-192-192c-25-25-25-65.6 0-90.6l192-192c25-25 65.6-25 90.6 0s25 65.6 0 90.6L218.75 320h587l-82.8-82.8c-25-25-25-65.6 0-90.6s65.6-25 90.6 0z"  horiz-adv-x="1024" />
      
      <glyph glyph-name="book-open" unicode="&#58926;" d="M499.2-47c21.6-7.6 44.8 8.2 44.8 31V738.8c0 8.4-3.2 16.8-10 22C494.8 792 404.8 832 288 832 187 832 92.6 805.4 36.2 783.8 13.6 775 0 752.6 0 728.4v-740.6c0-23.8 25.6-40.4 48.2-33C111.2-24.2 211 0 288 0c67.8 0 158-28 211.2-47z m153.6 0C706-28 796.2 0 864 0c77 0 176.8-24.2 239.8-45.2 22.6-7.6 48.2 9.2 48.2 33V728.4c0 24.2-13.6 46.6-36.2 55.2C1059.4 805.4 965 832 864 832c-116.8 0-206.8-40-246-71.2-6.6-5.2-10-13.6-10-22V-16c0-22.8 23.4-38.6 44.8-31z"  horiz-adv-x="1152" />
      
      <glyph glyph-name="list-ul" unicode="&#58927;" d="M128 608a96 96 0 1 1 0 192 96 96 0 1 1 0-192z m256 160c-35.4 0-64-28.6-64-64s28.6-64 64-64h576c35.4 0 64 28.6 64 64s-28.6 64-64 64H384z m0-320c-35.4 0-64-28.6-64-64s28.6-64 64-64h576c35.4 0 64 28.6 64 64s-28.6 64-64 64H384z m0-320c-35.4 0-64-28.6-64-64s28.6-64 64-64h576c35.4 0 64 28.6 64 64s-28.6 64-64 64H384zM128-32a96 96 0 1 1 0 192 96 96 0 1 1 0-192z m96 416a96 96 0 1 1-192 0 96 96 0 1 1 192 0z"  horiz-adv-x="1024" />
      
      <glyph glyph-name="comment-sms" unicode="&#58929;" d="M512.1039 0c282.8 0 512 186.2 512 416S794.9039 832 512.1039 832 0.1039 645.8 0.1039 416c0-90.2 35.4-173.6 95.4-241.8-3.8-49-22.8-92.6-42.8-125.8-11-18.4-22.2-33.2-30.4-43.2-4.2-5-7.4-8.8-9.8-11.4-1.2-1.2-2-2.2-2.6-2.8l-0.6-0.6c-9.2-9.2-11.8-22.8-6.8-34.8 5-12 16.6-19.8 29.6-19.8 57.4 0 115.2 17.8 163.2 38.6 45.8 20 84.8 43.8 108.6 61.2 63.6-23 134-35.8 208.2-35.8z m-106.2 542.4c13 4.4 27.4-0.2 35.8-11.2l70.4-93.8 70.4 93.8c8.2 11 22.6 15.6 35.8 11.2S640.1039 525.8 640.1039 512v-192c0-17.6-14.4-32-32-32s-32 14.4-32 32v96l-38.4-51.2c-6-8-15.6-12.8-25.6-12.8s-19.6 4.8-25.6 12.8L448.1039 416v-96c0-17.6-14.4-32-32-32s-32 14.4-32 32v192c0 13.8 8.8 26 21.8 30.4z m346.2-76v-0.8c0.2-0.2 1.2-1.6 4.4-3.4 7.8-4.6 19.2-8.2 36.6-13.6l1.2-0.4c14.8-4.4 34.6-10.4 50.4-20.4 18.2-11.4 34.8-30.4 35.2-59.8 0.4-30-15.2-52-35.6-64.6-19-11.8-41.8-15.8-61.4-15.2-24.4 0.8-47.4 8.8-65.2 14.8-2.8 1-5.4 1.8-8 2.8-16.8 5.6-25.8 23.8-20.2 40.4s23.8 25.8 40.4 20.2c3.4-1.2 6.6-2.2 9.8-3.2 18.2-6.2 31.2-10.6 45.2-11 10.6-0.4 20 2 25.6 5.6 2.4 1.6 3.6 3 4.2 4 0.4 0.8 1.2 2.4 1.2 5.4v0.4c0 1.4 0 2.8-5.4 6.2-7.6 4.8-19.2 8.6-36 13.8l-2.4 0.8c-14.4 4.4-33.4 10-48.6 19.2-18 10.8-35.4 29.4-35.4 58.8-0.2 30.4 17.2 51.4 37 63.2 18.8 11 41 15 59.4 14.8 20-0.4 39.4-4.6 55.8-8.8 17-4.6 27.2-22 22.6-39.2s-22-27.2-39.2-22.6c-14.6 3.8-28.2 6.6-40.2 6.8-9.8 0.2-19.6-2.2-25.8-5.8-2.8-1.6-4.2-3.2-4.8-4-0.4-0.6-0.8-1.6-0.8-3.8z m-544 0v-0.8c0.2-0.2 1.2-1.6 4.4-3.4 7.8-4.6 19.2-8.2 36.6-13.6l1.2-0.4c14.8-4.4 34.6-10.4 50.4-20.4 18.2-11.4 34.8-30.4 35.2-59.8 0.4-30-15.2-52-35.6-64.6-19-11.8-41.8-15.8-61.4-15.2-24.6 0.8-48.4 9-66.4 15.2-2.6 0.8-5 1.6-7.2 2.4-16.8 5.6-25.8 23.8-20.2 40.4s23.8 25.8 40.4 20.2c2.8-1 5.6-1.8 8.2-2.8 19-6.4 33-11.2 47.4-11.6 10.6-0.4 20 2 25.6 5.6 2.4 1.6 3.6 3 4.2 4 0.4 0.8 1.2 2.4 1.2 5.4v0.4c0 1.4 0 2.8-5.4 6.2-7.6 4.8-19.2 8.6-36 13.8l-2.4 0.8c-14.4 4.4-33.4 10-48.6 19.2-18 10.6-35.4 29.2-35.6 58.6-0.2 30.4 17.2 51.4 37 63.2 18.8 11 41 15 59.4 14.8 19-0.2 44.4-4.2 62.2-8.8 17-4.6 27.2-22 22.6-39.2s-22-27.2-39.2-22.6c-13.2 3.6-33.6 6.6-46.6 6.8-9.8 0.2-19.6-2.2-25.8-5.8-2.8-1.6-4.2-3.2-4.8-4-0.4-0.6-0.8-1.6-0.8-3.8z"  horiz-adv-x="1024" />
      
      <glyph glyph-name="angles-right" unicode="&#58930;" d="M941.2 338.8c25 25 25 65.6 0 90.6l-320 320c-25 25-65.6 25-90.6 0s-25-65.6 0-90.6L805.4 384 530.8 109.2c-25-25-25-65.6 0-90.6s65.6-25 90.6 0l320 320z m-704-320l320 320c25 25 25 65.6 0 90.6l-320 320c-25 25-65.6 25-90.6 0s-25-65.6 0-90.6L421.4 384 146.8 109.2c-25-25-25-65.6 0-90.6s65.6-25 90.6 0z"  horiz-adv-x="1024" />
      
      <glyph glyph-name="tag" unicode="&#58931;" d="M64 736v-299c0-34 13.4-66.6 37.4-90.6l352-352c50-50 131-50 181 0l267 267c50 50 50 131 0 181l-352 352c-24 24-56.6 37.4-90.6 37.4H160C107 832 64 789 64 736z m224-64a64 64 0 1 0 0-128 64 64 0 1 0 0 128z"  horiz-adv-x="1024" />
      
      <glyph glyph-name="chevron-right" unicode="&#58932;" d="M813.2 429.2c25-25 25-65.6 0-90.6l-384-384c-25-25-65.6-25-90.6 0s-25 65.6 0 90.6L677.4 384 338.8 722.8c-25 25-25 65.6 0 90.6s65.6 25 90.6 0l384-384z"  horiz-adv-x="1024" />
      
      <glyph glyph-name="radio" unicode="&#58933;" d="M989.587765 801.988502c25.399686 7.399909 39.999505 34.199577 32.599597 59.599263S987.987785 901.587271 962.388102 893.987365L103.398722 642.190478c-18.799768-5.399933-35.799557-14.599819-50.19938-26.399674C20.99974 592.591091 0 554.791558 0 511.992088v-511.99367c0-70.599127 57.39929-127.998418 127.998418-127.998418h767.990505c70.599127 0 127.998418 57.39929 127.998417 127.998418V511.992088c0 70.599127-57.39929 127.998418-127.998417 127.998417H436.994597l552.593168 161.997997zM735.990901 415.993274a159.998022 159.998022 0 1 0 0-319.996043 159.998022 159.998022 0 1 0 0 319.996043zM159.998022 383.99367c0 17.599782 14.399822 31.999604 31.999604 31.999604h191.997627c17.599782 0 31.999604-14.399822 31.999604-31.999604s-14.399822-31.999604-31.999604-31.999604H191.997626c-17.599782 0-31.999604 14.399822-31.999604 31.999604z m-31.999604-127.998417c0 17.599782 14.399822 31.999604 31.999604 31.999604h255.996835c17.599782 0 31.999604-14.399822 31.999604-31.999604s-14.399822-31.999604-31.999604-31.999605H159.998022c-17.599782 0-31.999604 14.399822-31.999604 31.999605z m31.999604-127.998418c0 17.599782 14.399822 31.999604 31.999604 31.999604h191.997627c17.599782 0 31.999604-14.399822 31.999604-31.999604s-14.399822-31.999604-31.999604-31.999604H191.997626c-17.599782 0-31.999604 14.399822-31.999604 31.999604z"  horiz-adv-x="1024" />
      
      <glyph glyph-name="forward" unicode="&#58934;" d="M105 14.8c-19-15.8-45.6-19.4-68.2-8.8S0 39.2 0 64V704c0 24.8 14.4 47.4 36.8 58s49 7.2 68.2-8.8L448 467.4v-166.8L105 14.8zM512 192V704c0 24.8 14.4 47.4 36.8 58s49 7.2 68.2-8.8l384-320c14.6-12.2 23-30.2 23-49.2s-8.4-37-23-49.2l-384-320c-19-15.8-45.6-19.4-68.2-8.8S512 39.2 512 64v128z"  horiz-adv-x="1024" />
      
      <glyph glyph-name="window-restore" unicode="&#58935;" d="M864 768H416c-17.6 0-32-14.4-32-32v-32h-128V736c0 88.4 71.6 160 160 160h448c88.4 0 160-71.6 160-160v-448c0-88.4-71.6-160-160-160h-32v128h32c17.6 0 32 14.4 32 32V736c0 17.6-14.4 32-32 32zM0 512c0 70.6 57.4 128 128 128h512c70.6 0 128-57.4 128-128v-512c0-70.6-57.4-128-128-128H128c-70.6 0-128 57.4-128 128V512z m128-64c0-35.4 28.6-64 64-64h384c35.4 0 64 28.6 64 64s-28.6 64-64 64H192c-35.4 0-64-28.6-64-64z"  horiz-adv-x="1024" />
      
      <glyph glyph-name="backward" unicode="&#58936;" d="M919 14.8c19-15.8 45.6-19.4 68.2-8.8s36.8 33.2 36.8 58V704c0 24.8-14.4 47.4-36.8 58s-49 7.2-68.2-8.8L576 467.4v-166.8l343-285.8zM512 192V704c0 24.8-14.4 47.4-36.8 58s-49 7.2-68.2-8.8l-384-320C8.4 421 0 403 0 384s8.4-37 23-49.2l384-320c19-15.8 45.6-19.4 68.2-8.8s36.8 33.2 36.8 58v128z"  horiz-adv-x="1024" />
      
      <glyph glyph-name="download" unicode="&#58937;" d="M576 832c0 35.4-28.6 64-64 64s-64-28.6-64-64v-485.4l-146.8 146.8c-25 25-65.6 25-90.6 0s-25-65.6 0-90.6l256-256c25-25 65.6-25 90.6 0l256 256c25 25 25 65.6 0 90.6s-65.6 25-90.6 0L576 346.6V832zM128 192c-70.6 0-128-57.4-128-128v-64c0-70.6 57.4-128 128-128h768c70.6 0 128 57.4 128 128v64c0 70.6-57.4 128-128 128H693l-90.6-90.6c-50-50-131-50-181 0L331 192H128z m736-112a48 48 0 1 0 0-96 48 48 0 1 0 0 96z"  horiz-adv-x="1024" />
      
      </font>
</defs>
</svg>
